01 Pop CHARISMAX Saudade Tontsukatantan 02 Anime Let's! Fresh Pretty Cure! (Quick Fix: Missing #MEASURE 4/4 on Sub-Oni) 07 Game Music Sonic the Hedgehog Medley (Fixed Audio) 09 Namco Original HYPERNOVA
461 lines
4.7 KiB
Plaintext
461 lines
4.7 KiB
Plaintext
//TJADB Project
|
|
TITLE:Sonic the Hedgehog Medley
|
|
TITLEJA:ソニック・ザ・ヘッジホッグ メドレー
|
|
SUBTITLE:--SONIC THE HEDGEHOG
|
|
SUBTITLEJA:SONIC THE HEDGEHOG
|
|
BPM:120
|
|
WAVE:Sonic the Hedgehog Medley.ogg
|
|
OFFSET:-2.063
|
|
DEMOSTART:11.662
|
|
|
|
|
|
COURSE:Oni
|
|
LEVEL:7
|
|
BALLOON:8
|
|
SCOREINIT:710,2160
|
|
SCOREDIFF:190
|
|
|
|
#START
|
|
1020002010210020,
|
|
1010201010210121,
|
|
1010201002004030,
|
|
0,
|
|
#BPMCHANGE 150
|
|
1111222211112222, //5
|
|
|
|
11210121,
|
|
0010201011102010,
|
|
11210121,
|
|
0010201022202010,
|
|
|
|
1110201000102010,
|
|
1110201000102010,
|
|
2220201000201020,
|
|
2220201010202020, //13
|
|
|
|
10102102,
|
|
1000201000212020,
|
|
10112102,
|
|
1000201000122020,
|
|
|
|
10102102,
|
|
1000201000212020,
|
|
10122102,
|
|
10210333, //21
|
|
|
|
1000201022101020,
|
|
1000201000212020,
|
|
1000201022101020,
|
|
1000201000122020,
|
|
|
|
1000201022101020,
|
|
1000201000212020,
|
|
1000201022101020,
|
|
10210121, //29
|
|
|
|
1022201022201022,
|
|
2010222011102020,
|
|
1022101022101022,
|
|
1010221020102010,
|
|
|
|
2011101011101011,
|
|
1010111010202020,
|
|
1010201010112020,
|
|
0020201022111020, //37
|
|
|
|
10101201,
|
|
2000102000211020,
|
|
20112112,
|
|
1000201000102222,
|
|
|
|
10102102,
|
|
1000222220111020,
|
|
1000222020101020,
|
|
10210100, //45
|
|
|
|
#BPMCHANGE 270.22
|
|
#GOGOSTART
|
|
500000000000000000000008
|
|
#BPMCHANGE 259.97
|
|
000000000000000000000000,
|
|
#BPMCHANGE 262.5
|
|
1202,
|
|
10210020,
|
|
1121,
|
|
10210120,
|
|
|
|
1212,
|
|
10210020,
|
|
1212,
|
|
10201220, //54
|
|
#GOGOEND
|
|
|
|
01002000,
|
|
21002000,
|
|
111100111100,
|
|
70000008,
|
|
|
|
#GOGOSTART
|
|
1202,
|
|
10210020,
|
|
1121,
|
|
10210120,
|
|
|
|
1212,
|
|
10210020,
|
|
1212,
|
|
10201220, //66
|
|
#GOGOEND
|
|
|
|
#BPMCHANGE 200
|
|
33404033,
|
|
40403340,
|
|
#MEASURE 2/4
|
|
4,
|
|
#MEASURE 4/4
|
|
34460000,
|
|
|
|
0,
|
|
000000000000000000000008000000000000000000000000,
|
|
0,
|
|
0, //74
|
|
#END
|
|
|
|
|
|
COURSE:Hard
|
|
LEVEL:4
|
|
BALLOON:24
|
|
SCOREINIT:760,3310
|
|
SCOREDIFF:225
|
|
|
|
#START
|
|
1020002010010000,
|
|
1010201010020010,
|
|
1010201002004030,
|
|
0,
|
|
#BPMCHANGE 150
|
|
500000000000000000000000000000000000000008000000, //5
|
|
|
|
11210121,
|
|
01012010,
|
|
11210250,
|
|
000000000000000000000000000000000008000000000000,
|
|
|
|
11210120,
|
|
11210120,
|
|
22250000,
|
|
000000000000000000000000000000000000000008000000, //13
|
|
|
|
10201200,
|
|
10210200,
|
|
10201200,
|
|
10210200,
|
|
|
|
10201200,
|
|
10210200,
|
|
10201200,
|
|
10210100, //21
|
|
|
|
10211202,
|
|
10210200,
|
|
10211202,
|
|
10210200,
|
|
|
|
10211202,
|
|
10210200,
|
|
10111202,
|
|
10110100, //29
|
|
|
|
12212212,
|
|
21221020,
|
|
21121121,
|
|
12112010,
|
|
|
|
11211211,
|
|
21121020,
|
|
11210122,
|
|
02212212, //37
|
|
|
|
10211202,
|
|
10210200,
|
|
10211202,
|
|
10210200,
|
|
|
|
10211202,
|
|
10210200,
|
|
10111202,
|
|
10110100, //45
|
|
|
|
#BPMCHANGE 270.22
|
|
#GOGOSTART
|
|
500000000000000000000008
|
|
#BPMCHANGE 259.97
|
|
000000000000000000000000,
|
|
#BPMCHANGE 262.5
|
|
1202,
|
|
10010000,
|
|
1121,
|
|
10010000,
|
|
|
|
1202,
|
|
10010000,
|
|
1121,
|
|
10010000, //54
|
|
#GOGOEND
|
|
|
|
9,
|
|
0,
|
|
0900,
|
|
080000000000000000000000000000000000000000000000,
|
|
|
|
#GOGOSTART
|
|
1202,
|
|
10010000,
|
|
1121,
|
|
10010000,
|
|
|
|
1202,
|
|
10010000,
|
|
1121,
|
|
10010000, //66
|
|
#GOGOEND
|
|
|
|
#BPMCHANGE 200
|
|
33404033,
|
|
40403340,
|
|
#MEASURE 2/4
|
|
4,
|
|
#MEASURE 4/4
|
|
34460000,
|
|
|
|
0,
|
|
000000000000000000000008000000000000000000000000,
|
|
0,
|
|
0, //74
|
|
#END
|
|
|
|
|
|
COURSE:Normal
|
|
LEVEL:4
|
|
BALLOON:17
|
|
SCOREINIT:910,4980
|
|
SCOREDIFF:308
|
|
|
|
#START
|
|
11011000,
|
|
11101000,
|
|
1000101002004000,
|
|
0,
|
|
#BPMCHANGE 150
|
|
500000000000000000000000000000000008000000000000, //5
|
|
|
|
10020010,
|
|
02001010,
|
|
10020050,
|
|
000000000000000000000000000000000008000000000000,
|
|
|
|
10010220,
|
|
10010220,
|
|
10050000,
|
|
000000000000000000000000000008000000000000000000, //13
|
|
|
|
1210,
|
|
1100,
|
|
1210,
|
|
1100,
|
|
|
|
1210,
|
|
1100,
|
|
1210,
|
|
1100, //21
|
|
|
|
10201200,
|
|
10200100,
|
|
10201200,
|
|
10200100,
|
|
|
|
10201200,
|
|
10200100,
|
|
10101200,
|
|
10100100, //29
|
|
|
|
10210210,
|
|
21021000,
|
|
20120120,
|
|
12012000,
|
|
|
|
10210210,
|
|
21021000,
|
|
10110110,
|
|
02202000, //37
|
|
|
|
10201200,
|
|
10200100,
|
|
10201200,
|
|
10200100,
|
|
|
|
10201200,
|
|
10200100,
|
|
10101200,
|
|
10100100, //45
|
|
|
|
#BPMCHANGE 270.22
|
|
#GOGOSTART
|
|
500000000000000000000008
|
|
#BPMCHANGE 259.97
|
|
000000000000000000000000,
|
|
#BPMCHANGE 262.5
|
|
1101,
|
|
1,
|
|
1110,
|
|
1,
|
|
|
|
1102,
|
|
2,
|
|
1110,
|
|
1, //54
|
|
#GOGOEND
|
|
|
|
9,
|
|
0,
|
|
0900,
|
|
080000000000000000000000000000000000000000000000,
|
|
|
|
#GOGOSTART
|
|
1101,
|
|
1,
|
|
1110,
|
|
1,
|
|
|
|
1102,
|
|
2,
|
|
1110,
|
|
1, //66
|
|
#GOGOEND
|
|
|
|
#BPMCHANGE 200
|
|
3443,
|
|
4434,
|
|
#MEASURE 2/4
|
|
4,
|
|
#MEASURE 4/4
|
|
30460000,
|
|
|
|
0,
|
|
000000000000000000000008000000000000000000000000,
|
|
0,
|
|
0, //74
|
|
#END
|
|
|
|
|
|
COURSE:Easy
|
|
LEVEL:3
|
|
BALLOON:14
|
|
SCOREINIT:910,8080
|
|
SCOREDIFF:430
|
|
|
|
#START
|
|
11,
|
|
1110,
|
|
1104,
|
|
0,
|
|
#BPMCHANGE 150
|
|
500000000000000000000000000008000000000000000000, //5
|
|
|
|
10010010,
|
|
01001000,
|
|
10010050,
|
|
000000000000000000000000000008000000000000000000,
|
|
|
|
10010010,
|
|
10010010,
|
|
10050000,
|
|
000000000000000000000000000008000000000000000000, //13
|
|
|
|
11,
|
|
1,
|
|
11,
|
|
2,
|
|
|
|
11,
|
|
1,
|
|
11,
|
|
1, //21
|
|
|
|
1110,
|
|
1,
|
|
1110,
|
|
2,
|
|
|
|
1110,
|
|
1,
|
|
1110,
|
|
1, //29
|
|
|
|
10010010,
|
|
01001000,
|
|
20020020,
|
|
02002000,
|
|
|
|
10010010,
|
|
01001000,
|
|
10010010,
|
|
02002000, //37
|
|
|
|
1110,
|
|
1,
|
|
1110,
|
|
2,
|
|
|
|
1110,
|
|
1,
|
|
1110,
|
|
1, //45
|
|
|
|
#BPMCHANGE 270.22
|
|
#GOGOSTART
|
|
500000000000000000000008
|
|
#BPMCHANGE 259.97
|
|
000000000000000000000000,
|
|
#BPMCHANGE 262.5
|
|
1,
|
|
1,
|
|
11,
|
|
1,
|
|
|
|
1,
|
|
2,
|
|
11,
|
|
1, //54
|
|
#GOGOEND
|
|
|
|
9,
|
|
0,
|
|
0900,
|
|
080000000000000000000000000000000000000000000000,
|
|
|
|
#GOGOSTART
|
|
1,
|
|
1,
|
|
11,
|
|
1,
|
|
|
|
1,
|
|
2,
|
|
11,
|
|
1, //66
|
|
#GOGOEND
|
|
|
|
#BPMCHANGE 200
|
|
3303,
|
|
3033,
|
|
#MEASURE 2/4
|
|
0,
|
|
#MEASURE 4/4
|
|
30060000,
|
|
|
|
0,
|
|
000000000000000000000008000000000000000000000000,
|
|
0,
|
|
0, //74
|
|
#END |