Files
ESE/07 Game Music/StartStar/Start Star.tja
T

466 lines
4.2 KiB
Plaintext

//TJADB Project
TITLE:Start→Star→
TITLEJA:スタ→トスタ→
SUBTITLE:--Hiroshi Okubo feat. Asami Shimoda/THE iDOLM@STER SP
SUBTITLEJA:
BPM:165
WAVE:Start Star.ogg
OFFSET:-1.753
DEMOSTART:82.987
SCENEPRESET:IMAS
COURSE:Oni
LEVEL:8
BALLOON:13,8,6
SCOREINIT:470,1410
SCOREDIFF:120
#START
0,
00000220,
0,
0,
0,
0002,
0020000020222030,
0030003022222222,
0010221000112010,
0010221020202000,
0010221000112010,
0010221040004000,
0010221000112010,
0010221020112000,
0010221000112010,
4440,
0010222000112210,
0010222020202000,
0010221000112210,
0010221040004000,
0010222000122210,
0010222020112000,
0010221122112211,
1120112011202220,
9009,
8000000022222222,
1022102010221012,
2011201020112010,
1022102012221070,
00000800,
1022102010221012,
2011201020112010,
1122112212221030,
0000000011111111,
1020101110201021,
2020102010111012,
1020101110201021,
2222200011112222,
1022102010221012,
2011201020112010,
1022102012221010,
0011201000222020,
1022102010221012,
2011201020112010,
1122112212221030,
0020200022222222,
10022000,
0001,
10022022,
00100100,
1011101110111040,
0040004000222010,
1022102012202010,
2011102011102011,
1020111020111020,
2010202010202011,
2211221122112211,
#GOGOSTART
2010201220102011,
2010201220102012,
2210201220102012,
2210201022222010,
2011221020112010,
2011221010202000,
1110222011102220,
2022102010112211,
2010201220102011,
2010201220102012,
2210201220102012,
2210201022222010,
2011221020112010,
2011221010202000,
1110222011102220,
100000000100000000100000700000000000000000000080,
#GOGOEND
0010221000112210,
0010221020102010,
0010221000221120,
0010221040004000,
0010222000112210,
0010222020102010,
0010221000221120,
1122112212121030,
0,
#END
COURSE:Hard
LEVEL:4
BALLOON:6,13,8,8,6
SCOREINIT:570,2510
SCOREDIFF:153
#START
0,
00000220,
0,
0,
0,
0002,
500000000000000000000000000008000000000000300000,
000300000300700000000008,
01210121,
01210000,
01210212,
01214040,
01210121,
01210000,
01210121,
4440,
01220122,
01220000,
01210121,
01214040,
01220122,
01220000,
01210212,
3330,
9009,
8,
10101121,
01212120,
10211207,
00000800,
11202021,
01212120,
12121203,
0,
12101212,
02121010,
12101212,
10201122,
10101212,
02121010,
12121201,
01210222,
10121021,
02121212,
11221104,
07000080,
10022000,
0001,
10022022,
0,
10101114,
04040222,
10121205,
000000000000000000000000000000000008000000000000,
0,
00000005,
000000000000000000000000000008000000000000300000,
#GOGOSTART
03340443,
03300001,
01210121,
01212021,
01210121,
01211220,
11221122,
02121203,
03340443,
03300001,
01210121,
01212021,
01210121,
01211220,
11221122,
100000000100000000100000700000000000000000000080,
#GOGOEND
01210121,
01210000,
01210212,
01214040,
01220122,
01220000,
01210212,
3330,
0,
#END
COURSE:Normal
LEVEL:4
BALLOON:9,6,5
SCOREINIT:780,4400
SCOREDIFF:265
#START
0,
00000220,
0,
0,
0,
0002,
500000000000000000000000000008000000000000300000,
03030000,
0101,
0100,
0101,
0144,
0101,
0100,
0111,
4440,
0102,
0100,
0102,
0144,
0102,
0100,
0222,
3330,
9009,
8,
1111,
2222,
10101007,
00000800,
1110,
2222,
10101103,
0,
0101,
0111,
0101,
2211,
0111,
0111,
0111,
00200222,
2110,
1111,
20202204,
07000080,
1,
0001,
1,
0,
10101004,
04040000,
10101105,
000000000000000000000000000000000008000000000000,
0,
00000005,
000000000000000000000000000008000000000000300000,
#GOGOSTART
03300003,
03300000,
1111,
2220,
1111,
20202200,
1111,
20202203,
03300003,
03300000,
1111,
2220,
1111,
20202200,
1111,
2222,
#GOGOEND
0102,
0100,
0102,
0144,
0102,
0100,
0222,
3330,
0,
#END
COURSE:Easy
LEVEL:3
BALLOON:9,5,5
SCOREINIT:560,5110
SCOREDIFF:200
#START
0,
00000220,
0,
0,
0,
0002,
500000000000000000000000000008000000000000300000,
03030000,
0101,
0100,
0101,
0144,
0101,
0100,
0111,
4440,
0202,
0200,
0202,
0244,
0202,
0200,
0222,
3330,
9009,
8,
11,
1110,
10101007,
00000800,
12,
12,
1111,
0,
0101,
0111,
0101,
0111,
0101,
0111,
0101,
0222,
0111,
0111,
0111,
07000080,
1,
0,
1,
0,
10101004,
04040000,
10101005,
000000000000000000000000000000000008000000000000,
0,
00000005,
000000000000000000000000000008000000000000300000,
#GOGOSTART
03300003,
03300000,
11,
22,
1110,
2220,
1110,
20202003,
03300003,
03300000,
11,
22,
1110,
2220,
1110,
2222,
#GOGOEND
0101,
0100,
0101,
0144,
0101,
0100,
0222,
3330,
0,
#END