Files
ESE/07 Game Music/When Enemies Collapse/When Enemies Collapse.tja
T
GanYiZhongandClaude Opus 5 7320a9448e Add TITLEZH_TW / SUBTITLEZH_TW (Traditional Chinese titles)
Add Traditional Chinese title (1276 charts) and subtitle (900 charts)
header fields. Header additions only; no chart data changed.

Co-Authored-By: Claude Opus 5 <noreply@anthropic.com>
2026-09-17 12:42:55 +08:00

653 lines
8.2 KiB
Plaintext

//TJADB Project
TITLE:When Enemies Collapse
TITLEJA:When Enemies Collapse
TITLEZH:When Enemies Collapse
TITLEZH_TW:When Enemies Collapse
SUBTITLE:--Daisuke Kurosawa From "WAHLAP Esports WEC2025"
SUBTITLEJA:黒沢ダイスケ 「WAHLAP eスポーツWEC2025」より
SUBTITLEZH:Daisuke Kurosawa 出自"华立电竞WEC2025"
SUBTITLEZH_TW:--Daisuke Kurosawa From "WAHLAP Esports WEC2025"
BPM:158
WAVE:When Enemies Collapse.ogg
OFFSET:-1.749
DEMOSTART:56.025
COURSE:Edit
LEVEL:10
BALLOON:
SCOREINIT:1020
SCOREDIFF:0
#START
0,
0,
0,
101010100100100000000000100100200000100100200000,
1120102211201020,
101010100100100000000000100100200000100100200000,
1110112212201220,
101010100100100000000000100100200000100100200000,
1120102211201020,
101010100100100000000000100100200000100100200000,
100000300000300000100100201010101010200200200000,
101010100100200000100200000100200000100100200200,
0122101102101020,
101010100100200000100200000100200000101010200200,
000000300000300000100100200000100100200000202020,
101010100100200000100200000100200000100100200200,
0122101102101020,
101010100100200000100200000100200000101010200200,
100000300000300000100100200000101010200200200000,
101010100000100000100000000000100100200000100100, //20
1010201012102011,
1010202012102011,
2211221012102220,
101010100000100000100000000000100100200000100100,
100000102020100000100000100200100000100000200100,
1010202212102011,
2210221120112210,
101010100000100000202020200000100000200200200200,
1010201012102011,
1010202212102011,
2210221120112210,
101010100000100000100000000000100100200000100100,
100000102020100000100000100200100000100000200100,
100000101010200200100000100000101010200200100000,
100000101010200200100000400000400000400000400000,
0, //36
#GOGOSTART
3000002220102010,
0022201022102222,
1000002220102010,
0020001022102010,
3000002220102010,
0022201022102111,
1000002220102011,
1010201022102010,
1111201200112011,
0011201011221122,
1111201200112011,
000000100100200000100000202010100200200000101010,
1111201201102010,
0011201112112011,
1000111020101010,
1212121212221110, //52
#GOGOEND
3,
0,
6,
000000000000000000000008000000000000000000000000,
1211121021112110,
1211121021121120,
1211121021112110,
1211121021121022,
1211121022122110,
1211121022112120,
1211121022122110,
1030300040030060,
000000000000000000000000000008000000100100100100, //65
1000002220102010,
202020101010200200100100200100100100202000000000,
#GOGOSTART
1111201102102011,
100000100100200000100000202010100100200000000000,
1111201202112011,
0211201112112010,
1111201102102011,
100000100000200000100000202010100200200100100000,
1111201202112011,
0011201011221122,
1111201102102011,
200000100100200000100000202010100100200000101010,
2000201020102210,
2010201121102111,
1000111020101010,
100200100200100200100000101010100100200000101010,
2000111020102020,
1212121212221110, //83
#GOGOEND
101010100100200000100200000100200000101010200200,
0122101102101020,
101010100100200000100200000100200000101010200200,
000000300000300000100100200000101010200200200200,
101010100100200200100100200200100100202010100100,
101010100100200200100100200200100100202020200200,
101010100100200000100200000100200000101010200200,
100000300000300000100100200000101010200000400000,
0,
0, //93
#END
COURSE:Oni
LEVEL:8
BALLOON:31,31,16,31
SCOREINIT:1410
SCOREDIFF:0
#START
0,
0,
0,
1122100000200020,
1110100020100010,
1122100000200020,
1110100020102010,
1122100000200020,
1110100020102010,
1122100000202010,
13304030,
1122100001102010,
0010201101101020,
1122100001102010,
03304030,
1122100001102010,
0010201101101020,
1122101001102010,
13304030,
11110120, //20
1011201000102011,
1010222010100011,
1011221010102000,
1011201000112210,
1011221000102010,
1011202011122011,
2210222011102000,
1010002220102000,
1011201000102011,
1010222010100011,
1011221010102000,
1011201000112210,
1011221000102010,
7,
00000008,
2000000022202020, //36
#GOGOSTART
3000001120111010,
0020001020100011,
1000001120111010,
0020001120102010,
1000001120111010,
0010201020100011,
1000001120111050,
000000000000000000000000000008000000200000200000,
1111201120221010,
0010200011112020,
1111201120221010,
0010200011112020,
1111201120221010,
0010201110112020,
7,
00000008, //52
#GOGOEND
1000000022202220,
0000000022222220,
3000000022202220,
0000000022222220,
1110111022202220,
1110111022222220,
1110111022202220,
1110111022222220,
1110111022102100,
1110111022112100,
1110221022102100,
1030300040030070,
00000008, //65
3000001000111050,
000000000000000000000000000008000000200000000000,
#GOGOSTART
1111201120221010,
0010200011112000,
1111201120221010,
0010200011112020,
1111201120221050,
000000000000000000000000000008000000200000000000,
1111201120221010,
0010200011112220,
1111201120221010,
0010200011112011,
1000201120221010,
1010201020221011,
1000101022111120,
1020201022112020,
7,
00000008, //83
#GOGOEND
1122100001102010,
0010201101101020,
1122101101102010,
13304030,
1111221122112210,
1111221122112220,
1111201101102010,
13304033,
0,
0, //93
#END
COURSE:Hard
LEVEL:6
BALLOON:23,23,12,23,10
SCOREINIT:2220
SCOREDIFF:0
#START
0,
0,
0,
31102000,
1110100020100010,
11102000,
1110100020102010,
11102000,
1110100020100010,
11102000,
03303030,
1110200000102010,
01210112,
1110200000102010,
03303030,
1110200000102010,
11210112,
1110200000102010,
13303030,
11110120, //20
1011101000102010,
01201121,
01101121,
1010201000102220,
11210121,
0010100011102010,
01201121,
11210120,
1011101000102010,
01201121,
01101121,
1010201000102220,
11210121,
7,
00000008,
0, //36
#GOGOSTART
3000001020111010,
02012101,
1000001020111010,
02012121,
1000001020111010,
01202101,
10012105,
000000000000000000000000000008000000200000000000,
3000201000111010,
01201120,
1000201000111010,
01201120,
1000201110111010,
01201120,
7,
00000008, //52
#GOGOEND
1022,
02,
3022,
02,
1110100020000000,
1110100020000000,
1110100020000000,
1110100020000000,
1110100020002000,
1110100020002000,
1110100020002000,
0030300030030070,
00000008, //65
3000001000111050,
000000000000000000000000000008000000200000000000,
#GOGOSTART
3000201000111010,
01201120,
1000201000111010,
01201120,
1000201110111050,
000000000000000000000000000008000000200000000000,
3000201000111010,
01201120,
1000201000111010,
01201120,
1000201110111010,
01202110,
7,
00000008,
9009,
8, //83
#GOGOEND
1110200000102010,
01210112,
1110200000102010,
03303030,
1110200000102010,
11210112,
1110200000102010,
13303033,
0,
0, //93
#END
COURSE:Normal
LEVEL:6
BALLOON:16,16,8,16,7
SCOREINIT:3120
SCOREDIFF:0
#START
0,
0,
0,
3120,
11101000,
1120,
11101010,
1120,
11101000,
1120,
03303030,
11100222,
01100020,
11100222,
03303030,
11100222,
01100020,
11100222,
03303030,
10110020, //20
10110101,
01101011,
01101010,
10110020,
10110020,
01101011,
01101010,
10110020,
10110101,
01101011,
01101010,
10110020,
10110020,
7,
00000008,
2, //36
#GOGOSTART
30010111,
0022,
10010111,
0022,
10010111,
0122,
10011105,
000000000000000000000000000000000008000000000000,
30110111,
00201110,
10110111,
00201110,
10011111,
00201110,
7,
00000008, //52
#GOGOEND
1,
0,
3,
0,
11102000,
11102000,
11102000,
11102000,
11102020,
11102020,
11102020,
0030300030030070,
00000008, //65
30010115,
000000000000000000000000000000000008000000000000,
#GOGOSTART
30110111,
00201110,
10011111,
00201110,
10011105,
000000000000000000000000000000000008000000000000,
30110111,
00201110,
10110111,
00201110,
10011011,
10201110,
7,
00000008,
9009,
8, //83
#GOGOEND
11100222,
01100020,
11100222,
03303030,
11100222,
01100020,
11100222,
03303030,
0,
0, //93
#END
COURSE:Easy
LEVEL:4
BALLOON:13,11,20
SCOREINIT:5990
SCOREDIFF:0
#START
0,
0,
0,
3100,
11,
1100,
12,
1100,
11,
1100,
0033,
1102,
0100,
1102,
0033,
1102,
0100,
1102,
0033,
1001, //20
1,
0110,
0110,
1001,
1,
0110,
0110,
1001,
1,
0110,
0110,
1001,
1001,
7,
00000008,
0, //36
#GOGOSTART
30010001,
02,
10010001,
02,
10010001,
02,
10002005,
000000000000000000000000000008000000000000000000,
30010011,
0110,
10010011,
0110,
10010011,
0110,
7,
00000800, //52
#GOGOEND
1,
0,
3,
0,
12,
1110,
12,
1110,
1110,
1110,
1110,
03,
0, //65
30010015,
000000000000000000000000000008000000000000000000,
#GOGOSTART
30010011,
0110,
10010011,
0110,
10010005,
000000000000000000000000000008000000000000000000,
30010011,
0110,
10010011,
0110,
1011,
1011,
9,
0,
0900,
8, //83
#GOGOEND
1102,
0100,
1102,
0033,
1102,
0100,
1102,
0033,
0,
0, //93
#END