Files
ESE/07 Game Music/arcadia/arcadia.tja
T
2026-09-09 16:46:55 -04:00

477 lines
4.8 KiB
Plaintext

//TJADB Project
TITLE:arcadia
TITLEJA:arcadia
SUBTITLE:--Noriyasu Agematsu feat. Asami Imai/THE iDOLM@STER Shiny TV
SUBTITLEJA:
BPM:110
WAVE:arcadia.ogg
OFFSET:-2.345
DEMOSTART:77.637
SCENEPRESET:IMAS
COURSE:Oni
LEVEL:9
BALLOON:
SCOREINIT:560,1700
SCOREDIFF:155
#START
0,
0,
2,
2,
11,
20222010,
11220112,
02100010, //8
2000001001002000,
#BPMCHANGE 84.36
#SCROLL 1.3
5,
000000000000000008000000000000000000000000000000, //11
#BPMCHANGE 180
#SCROLL 1
#GOGOSTART
300000000000000000000222,
100000000000000000000222,
10000003,
0010103000101122,
1000102210201012,
1011202210201122,
1012221222101122,
2211203000304030, //19
#GOGOEND
00010120,
10120210,
10010120,
10120211,
10210121,
2000201010002022,
1022201000102022,
1022201020101021, //27
10210121,
2000201020112000,
1022201000102022,
1022201020101021, //31
10210121,
2000201020101022,
1022201000111030,
0010222010201122, //35
1011201110112211,
1011201110112220,
3022203022104030,
0020201022121122,
1110
#SCROLL 3
4000
#SCROLL 1
00102012,
2210201210102000,
3022203022104030,
0011201110221010, //43
1022101202102011,
1022101202102011,
2022122022101030,
0021212121212121,
20022022,
02203303, //49
#GOGOSTART
0020112012021122,
1020112012021122,
1020122120211012,
2010122210100030,
0020112012021122,
1020112012021122,
1022121212121030,
0020201210112021, //57
2011201120112021,
2011201120112021,
2012201022112030,
0010221011112211,
1010202110102021,
1010201212102011,
1222103000400030, //64
#GOGOEND
0010102000102022,
11020210,
4000002000102022,
11020210,
4020001000202022,
1022101222122122,
11040303,
0, //72
0,
0,
0,
0,
0, //77
#END
COURSE:Hard
LEVEL:6
BALLOON:13
SCOREINIT:810,3280
SCOREDIFF:253
#START
0,
0,
2,
2,
11,
20222010,
11220111,
02200010,
2000001001002000,
#BPMCHANGE 84.36
#SCROLL 1.3
5,
000000000000000008000000000000000000000000000000,
#BPMCHANGE 180
#SCROLL 1
#GOGOSTART
3,
0,
30000003,
0000003000001111,
10121212,
1010201000002220,
30430343,
03430343,
#GOGOEND
0,
0,
0,
00000011,
10110122,
10211020,
10220120,
10221122,
10110122,
10211020,
500000000000000000000000000000000000000000000008,
00000011,
10110122,
10211020,
10220103,
00000011,
10201121,
1000200010102220,
10110103,
0,
0
#SCROLL 2
4
#SCROLL 1
01,
10201120,
11210103,
00000011,
10110112,
20220221,
9009,
8,
20022022,
02203303,
#GOGOSTART
02121212,
12121211,
12120121,
01204403,
02121212,
12121211,
12121203,
0,
1110200011102000,
1110200011102000,
10110106,
000000000000000000000008000000000000000000000000,
1110200011102000,
1110200011102000,
11130406,
#GOGOEND
000000000000000000000008000000000000000000000000,
0,
4,
0,
4,
0,
30030303,
0,
0,
0,
0,
0,
0,
#END
COURSE:Normal
LEVEL:5
BALLOON:10
SCOREINIT:990,5300
SCOREDIFF:408
#START
0,
0,
2,
2,
11,
22,
10100003,
0300,
1000001001001000,
#BPMCHANGE 84.36
#SCROLL 1.3
5,
000000000000000008000000000000000000000000000000,
#BPMCHANGE 180
#SCROLL 1
#GOGOSTART
3,
0,
30000003,
00030000,
0303,
0303,
0404,
00400043,
#GOGOEND
0,
0,
0,
0,
10110000,
10110000,
20220000,
20220000,
10110000,
10110000,
500000000000000000000000000000000000000000000008,
0,
10110000,
10110000,
20220003,
0,
1212,
1212,
10110003,
0,
0
#SCROLL 2
4
#SCROLL 1
00,
1212,
10110003,
0,
10110000,
20220000,
9009,
8,
20022022,
02203303,
#GOGOSTART
0111,
1111,
10110003,
03304403,
0111,
1111,
10110003,
0,
1212,
1212,
10110006,
000000000000000000000008000000000000000000000000,
1212,
1212,
30030406,
#GOGOEND
000000000000000000000008000000000000000000000000,
0,
4,
0,
4,
0,
30030303,
0,
0,
0,
0,
0,
0,
#END
COURSE:Easy
LEVEL:4
BALLOON:8
SCOREINIT:870,7750
SCOREDIFF:600
#START
0,
0,
2,
2,
11,
22,
10100003,
0,
1000001001001000,
#BPMCHANGE 84.36
#SCROLL 1.3
5,
000000000000000008000000000000000000000000000000,
#BPMCHANGE 180
#SCROLL 1
#GOGOSTART
3,
0,
30000003,
00030000,
0303,
0303,
0404,
0404,
#GOGOEND
0,
0,
0,
0,
10010000,
10010000,
20020000,
20020000,
10010000,
10010000,
500000000000000000000000000000000000000000000008,
0,
10010000,
10010000,
20020003,
0,
11,
1110,
10100003,
0,
0
#SCROLL 2
4
#SCROLL 1
00,
11,
10100003,
0,
10020000,
10020000,
9009,
8,
0,
00003305,
#GOGOSTART
0,
000000000000000008000000000000000000000000000000,
10101003,
00004405,
0,
000000000000000008000000000000000000000000000000,
10101003,
0,
11,
11,
10101006,
000000000000000000000008000000000000000000000000,
11,
11,
30030406,
#GOGOEND
000000000000000000000008000000000000000000000000,
0,
4,
0,
4,
0,
30030303,
0,
0,
0,
0,
0,
0,
#END