Files
ESE/07 Game Music/sekai note/sekai note.tja
T
GanYiZhongandClaude Opus 5 7320a9448e Add TITLEZH_TW / SUBTITLEZH_TW (Traditional Chinese titles)
Add Traditional Chinese title (1276 charts) and subtitle (900 charts)
header fields. Header additions only; no chart data changed.

Co-Authored-By: Claude Opus 5 <noreply@anthropic.com>
2026-09-17 12:42:55 +08:00

473 lines
3.4 KiB
Plaintext

//TJADB Project
TITLE:sekai note
TITLEJA:せかいのおと - sekai note -
TITLEZH:せかいのおと - sekai note -
TITLEZH_TW:せかいのおと - sekai note -
SUBTITLE:--FILTER SYSTEM/Synchronica
SUBTITLEJA:FILTER SYSTEM 「シンクロニカ」より
SUBTITLEZH_TW:--FILTER SYSTEM 「シンクロニカ」より
BPM:160
WAVE:sekai note.ogg
OFFSET:-2.479
DEMOSTART:36.935
//SONG_ID:syseka
COURSE:Oni
LEVEL:8
BALLOON:30,32
SCOREINIT:2130
SCOREDIFF:0
#START
0,
0,
0,
0200,
0200,
0200,
0200,
11,
11,
11,
1,
111211,
111211,
211211,
4443, //15
1000202200102022,
1000202212102202,
1000202210102120,
1000202201102011,
1000202200102022,
1000202212102202,
1000202210102120,
1000202201101000,
#GOGOSTART
101210101210,
202120202120,
101210202120,
101210201210,
101210101210,
202120202120,
101210202120,
122120122120, //31
#GOGOEND
3210,
1200,
1210,
1200,
5,
000000000000000000000000000000000000000008000000,
7,
00000800,
100100100111,
200100100111,
100100100111,
200100100111,
100100100111,
100100100111,
100100100111,
1, //47
1010201120201202,
1010202212102202,
1010201120201202,
1010202202112000,
1010201120201202,
1010202212102202,
1020102210201102,
101010101010100100400000,
1020102200102022,
1020102212102202,
1020102210102120,
1020102201102011,
1020102200102022,
1020102212102202,
1020102210102120,
1020102201102000, //63
#GOGOSTART
101210111210,
202120222120,
101210222120,
111210121210,
122120122120,
122120122120,
111211112121,
122121121211,
#GOGOEND
5,
000000000000000000000000000000000000000008000000,
7,
00000008,
1,
0,
2,
0,
0,
#MEASURE 8/4
0, //81
#END
COURSE:Hard
LEVEL:4
BALLOON:42
SCOREINIT:3520
SCOREDIFF:0
#START
0,
0,
0,
0200,
0200,
0200,
0200,
11,
11,
11,
1,
111100,
111100,
111111,
3333, //15
10200120,
10201120,
10201120,
1000200022202000,
10200120,
10201120,
10201120,
1000200011101000,
#GOGOSTART
111111,
222200,
111222,
111200,
111111,
222200,
111222,
111200, //31
#GOGOEND
3,
0,
0,
0,
0200,
0200,
0200,
0200,
100100100111,
1110,
100100100111,
1110,
100100100111,
1110,
100100100111,
1, //47
11211200,
11221100,
11211200,
11221100,
11211200,
11221100,
1111,
111100100400,
10200120,
10201120,
10201120,
1000200022202000,
10200120,
10201120,
10201120,
1000200011102000, //63
#GOGOSTART
111111,
222222,
111222,
111222,
111111,
222222,
111222,
111222,
#GOGOEND
9,
0,
0,
9,
8,
0,
1,
0,
0,
#MEASURE 8/4
0, //81
#END
COURSE:Normal
LEVEL:2
BALLOON:36
SCOREINIT:7120
SCOREDIFF:0
#START
0,
0,
0,
0200,
0200,
0200,
0200,
1,
1,
1,
1,
11,
11,
11,
3333, //15
1,
11,
22,
2,
1,
11,
22,
2,
#GOGOSTART
111100,
111100,
111100,
111100,
111100,
111100,
111100,
111100, //31
#GOGOEND
3,
0,
0,
0,
0200,
0200,
0200,
0200,
1,
1,
1,
1,
11,
11,
11,
0, //47
10011000,
11,
10011000,
11,
10011000,
11,
1111,
500000000000000000000000000000000008000000000000,
1,
11,
22,
2,
1,
11,
22,
2, //63
#GOGOSTART
111100,
111100,
111100,
222200,
111100,
111100,
111100,
222200,
#GOGOEND
9,
0,
0,
9,
8,
0,
0,
0,
0,
#MEASURE 8/4
0, //81
#END
COURSE:Easy
LEVEL:1
BALLOON:3,30
SCOREINIT:14220
SCOREDIFF:0
#START
0,
0,
0,
0200,
0,
0200,
0,
1,
0,
1,
0,
1,
1,
11,
70000800, //15
1,
11,
11,
1,
1,
11,
11,
1,
#GOGOSTART
11,
1,
11,
1,
11,
1,
11,
1, //31
#GOGOEND
3,
0,
0,
0,
0200,
0,
0200,
0,
1,
0,
1,
0,
1,
1,
1,
0, //47
1,
01,
1,
01,
1,
01,
5,
000000000000000000000000000008000000000000000000,
1,
11,
11,
1,
1,
11,
11,
1, //63
#GOGOSTART
11,
1,
22,
2,
11,
1,
22,
2,
#GOGOEND
9,
0,
0,
9,
8,
0,
0,
0,
0,
#MEASURE 8/4
0, //81
#END