//TJADB Project
TITLE:Fascinating Rhythm
TITLEJA:魅惑のリズム
SUBTITLE:--George Gershwin/Lady Be Good
BPM:160.56
WAVE:Fascinating Rhythm.ogg
OFFSET:-1.728
DEMOSTART:30.327

COURSE:Oni
LEVEL:6
BALLOON:15
SCOREINIT:
SCOREDIFF:
#START
,
#BPMCHANGE 157.2
101001101001,
101001101000,
#BPMCHANGE 160.87
101201200100,
100202100200,
002101200100,
#BPMCHANGE 158.41
100000202202,
001200101200,
#BPMCHANGE 158.25
100202100200,
001202100200,
#BPMCHANGE 161.82
500000000000000000000008000000000000200000000000,
#BPMCHANGE 160.56
100101200101,
100101200100,
000102101200,
#BPMCHANGE 158.1
500000000000000008000000200000002000200000002000,
001101102102,
001101102102,
#BPMCHANGE 159.63
001201201200,
101101102202,
100200102200,
#BPMCHANGE 161.24
100200101200,
100200102100,
101100102111,
#BPMCHANGE 159.17
100200102200,
100200101200,
100200102100,
#BPMCHANGE 158.51
100201102111,
1111,
202102002100,
#BPMCHANGE 150.61
500000000000000000000008000000000000000000000000,
#BPMCHANGE 154.57
102200302200,
#BPMCHANGE 160.25
1222,
#BPMCHANGE 153.69
100202000200,
#BPMCHANGE 138.27
112112,
#BPMCHANGE 151.17
1111,
#GOGOSTART
#BPMCHANGE 158.71
101201102000,
#BPMCHANGE 160.87
101201001200,
111201001201,
#BPMCHANGE 159.75
111100000000,
101201102000,
101201101200,
111201001101,
111100000000,
#GOGOEND
#BPMCHANGE 159.32
0111,
100202002200,
#BPMCHANGE 152
0340,
#BPMCHANGE 135.11
43,
#BPMCHANGE 136.21
1210,
#BPMCHANGE 142.09
1
#BPMCHANGE 127.6
0,
#MEASURE 7/4
#BPMCHANGE 105.66
101201
#BPMCHANGE 169.9
#SCROLL 0.62
200
#SCROLL 1
200200200
#BPMCHANGE 142.56
200,
#MEASURE 4/4
#GOGOSTART
#BPMCHANGE 169.1
1120102011200000,
200000100100200000100100200000000000100000001000,
100401100401,
1434,
12121212,
100200100200100000200020,
101200202101,
101202101200,
#GOGOEND
#BPMCHANGE 156
1011,
100202200200,
#BPMCHANGE 157.06
1,
202100202100,
#BPMCHANGE 153.69
1122,
102102200200,
#BPMCHANGE 139.67
112112,
#BPMCHANGE 149.26
1111,
#GOGOSTART
#BPMCHANGE 160.25
101201102000,
#BPMCHANGE 159.94
101201001200,
111201001202,
111202111200,
101201102000,
101201001200,
111201001102,
111202111200,
#GOGOEND
#BPMCHANGE 159.94
000200100102,
102202002200,
#BPMCHANGE 148.44
2122,
#MEASURE 2/4
#BPMCHANGE 121.6
1,
#BPMCHANGE 139.7
3,
#MEASURE 6/4
#BPMCHANGE 131.67
1210
#BPMCHANGE 121.6
10,
#BPMCHANGE 95.7
9
#BPMCHANGE 164.72
08,
#MEASURE 4/4
03,
#END

COURSE:Hard
LEVEL:5
BALLOON:10
SCOREINIT:650
SCOREDIFF:150
#START
,
#BPMCHANGE 157.2
110110,
101000101001,
#BPMCHANGE 160.87
100101100200,
100101100200,
000101100100,
#BPMCHANGE 158.41
100000202202,
000100102200,
#BPMCHANGE 158.25
100100102200,
000101100100,
#BPMCHANGE 161.82
500000000000000000000008000000000000200000000000,
#BPMCHANGE 160.56
100102200101,
100102200100,
000102200100,
#BPMCHANGE 158.1
500000000000000008000000100000000000100000002000,
000100102202,
000100102202,
#BPMCHANGE 159.63
0111,
500000000000000000000008000000000000100000000000,
101101100000,
#BPMCHANGE 161.24
101101100101,
101100000100,
500000000000000000000000000000000008000000000000,
#BPMCHANGE 159.17
101101100000,
202202200101,
101100000100,
#BPMCHANGE 158.51
100202202200,
1011,
100202001100,
#BPMCHANGE 150.61
500000000000000000000000000000000008000000000000,
#BPMCHANGE 154.57
102200302200,
#BPMCHANGE 160.25
12,
#BPMCHANGE 153.69
100102000200,
#BPMCHANGE 138.27
111112,
#BPMCHANGE 151.17
1,
#GOGOSTART
#BPMCHANGE 158.71
101101102001,
#BPMCHANGE 160.87
101100100200,
101101002200,
#BPMCHANGE 159.75
202200202200,
101101102000,
101100100200,
101101002200,
202200202200,
#GOGOEND
#BPMCHANGE 159.32
1012,
100101001100,
#BPMCHANGE 152
0111,
#BPMCHANGE 135.11
13,
#BPMCHANGE 136.21
12,
#BPMCHANGE 142.09
1
#BPMCHANGE 127.6
0,
#MEASURE 7/4
#BPMCHANGE 105.66
101101
#BPMCHANGE 169.9
#SCROLL 0.62
100
#SCROLL 1
100100100
#BPMCHANGE 142.56
100,
#MEASURE 4/4
#GOGOSTART
#BPMCHANGE 169.1
20221100,
100000200100100000100010,
100201100201,
1232,
11101110,
11111010,
101100201100,
100200202200,
#GOGOEND
#BPMCHANGE 156
1012,
12,
#BPMCHANGE 157.06
1,
200100202100,
#BPMCHANGE 153.69
12,
12,
#BPMCHANGE 139.67
111112,
#BPMCHANGE 149.26
1,
#GOGOSTART
#BPMCHANGE 160.25
101101102000,
#BPMCHANGE 159.94
101101000200,
101101002200,
202200202200,
101101102000,
3340,
101101002200,
202200202200,
#GOGOEND
1011,
100101001100,
#BPMCHANGE 148.44
0122,
#MEASURE 2/4
#BPMCHANGE 121.6
1,
#BPMCHANGE 139.7
3,
#MEASURE 6/4
#BPMCHANGE 131.67
1210
#BPMCHANGE 121.6
10,
#BPMCHANGE 95.7
9
#BPMCHANGE 164.72
08,
#MEASURE 4/4
03,
#END

COURSE:Normal
LEVEL:5
SCOREINIT:800
SCOREDIFF:190
#START
,
#BPMCHANGE 157.2
110100,
110100,
#BPMCHANGE 160.87
11,
1112,
0101,
#BPMCHANGE 158.41
100000200202,
0101,
#BPMCHANGE 158.25
1111,
0111,
#BPMCHANGE 161.82
500000000008000000200000,
#BPMCHANGE 160.56
11,
1112,
0101,
#BPMCHANGE 158.1
500000000000000008000000,
0111,
0111,
#BPMCHANGE 159.63
0112,
500000000000000008000000,
1201,
#BPMCHANGE 161.24
1201,
1201,
1100,
#BPMCHANGE 159.17
1201,
1201,
1202,
#BPMCHANGE 158.51
1111,
11,
100101000000,
#BPMCHANGE 150.61
500000000000000008000000,
#BPMCHANGE 154.57
1212,
#BPMCHANGE 160.25
12,
#BPMCHANGE 153.69
100101000000,
#BPMCHANGE 138.27
100111,
#BPMCHANGE 151.17
1,
#GOGOSTART
#BPMCHANGE 158.71
101100000200,
#BPMCHANGE 160.87
101100000000,
101100000200,
#BPMCHANGE 159.75
101100000000,
101100000200,
101100000100,
101100000200,
101100000000,
#GOGOEND
#BPMCHANGE 159.32
1,
100001001100,
#BPMCHANGE 152
0111,
#BPMCHANGE 135.11
13,
#BPMCHANGE 136.21
12,
#BPMCHANGE 142.09
100000000000000000500000
#BPMCHANGE 127.6
000000000000000008000000,
#MEASURE 7/4
#BPMCHANGE 105.66
00
#BPMCHANGE 169.9
0000
#BPMCHANGE 142.56
0,
#MEASURE 4/4
#GOGOSTART
#BPMCHANGE 169.1
1111,
1120,
1120,
1122,
1111,
1120,
1120,
1122,
#GOGOEND
#BPMCHANGE 156
0011,
12,
#BPMCHANGE 157.06
1,
2121,
#BPMCHANGE 153.69
02,
12,
#BPMCHANGE 139.67
100111,
#BPMCHANGE 149.26
1,
#GOGOSTART
#BPMCHANGE 160.25
101100000200,
#BPMCHANGE 159.94
101100000000,
101100000200,
101100000000,
101100000200,
101100000100,
101100000200,
101100000000,
#GOGOEND
12,
100001001100,
#BPMCHANGE 148.44
1022,
#MEASURE 2/4
#BPMCHANGE 121.6
1,
#BPMCHANGE 139.7
3,
#MEASURE 4/4
#BPMCHANGE 131.67
11,
#BPMCHANGE 121.6
1
#BPMCHANGE 95.7
0,
#BPMCHANGE 164.72
500000000000000000000008,
03,
#END

COURSE:Easy
LEVEL:4
BALLOON:13,13
SCOREINIT:650
SCOREDIFF:160
#START
,
#BPMCHANGE 157.2
110000,
110000,
#BPMCHANGE 160.87
11,
1110,
11,
#BPMCHANGE 158.41
100000200001,
0011,
#BPMCHANGE 158.25
0111,
0111,
#BPMCHANGE 161.82
500000000008000000000000,
#BPMCHANGE 160.56
11,
1110,
11,
#BPMCHANGE 158.1
100000200001,
0011,
0011,
#BPMCHANGE 159.63
01,
500000000008000000000000,
1100,
#BPMCHANGE 161.24
1100,
1101,
1100,
#BPMCHANGE 159.17
1100,
1100,
1101,
#BPMCHANGE 158.51
1100,
12,
12,
#BPMCHANGE 150.61
500000000000000008000000,
#BPMCHANGE 154.57
13,
#BPMCHANGE 160.25
12,
#BPMCHANGE 153.69
12,
#BPMCHANGE 138.27
100110,
#BPMCHANGE 151.17
3,
#GOGOSTART
#BPMCHANGE 158.71
1100,
#BPMCHANGE 160.87
1100,
1102,
#BPMCHANGE 159.75
2200,
1200,
1200,
1202,
2200,
#GOGOEND
#BPMCHANGE 159.32
1,
100001000100,
#BPMCHANGE 152
01,
#BPMCHANGE 135.11
13,
#BPMCHANGE 136.21
11,
#BPMCHANGE 142.09
1
#BPMCHANGE 127.6
0,
#MEASURE 7/4
#BPMCHANGE 105.66
500000000008
#BPMCHANGE 169.9
000000000000000000000000
#BPMCHANGE 142.56
000000,
#MEASURE 4/4
#GOGOSTART
#BPMCHANGE 169.1
7,
0000000008000000,
1110,
2220,
7,
0000000008000000,
1110,
2221,
#GOGOEND
#BPMCHANGE 156
02,
12,
#BPMCHANGE 157.06
500000000008000000000000,
44,
#BPMCHANGE 153.69
12,
12,
#BPMCHANGE 139.67
31,
#BPMCHANGE 149.26
3,
#GOGOSTART
#BPMCHANGE 160.25
1100,
#BPMCHANGE 159.94
1100,
1102,
2200,
1200,
1200,
1202,
2200,
#GOGOEND
#BPMCHANGE 159.94
1,
100001000100,
#BPMCHANGE 148.44
0500,
#BPMCHANGE 121.6
000000000000080000000000
#BPMCHANGE 139.7
000000000000000000000000,
#BPMCHANGE 131.67
11,
#BPMCHANGE 121.6
1
#BPMCHANGE 95.7
0,
#BPMCHANGE 164.72
500000000000000000000008,
03,
#END
