Files
TFD500 493f21434e actual TJA > img2tja
- converted some img2tja (donscore) charts to PDK, again
- added // TJADB Project to some charts that were missing the tag
- removed Meowgister's lyrics because they clutter TJAs with unnecessary filespace, and are not present in the official game anyway

hot take;
if ese adds lyrics, it would only be using the official timing points from namco, mainly from Wii1-5 to WiiU1-3.
2025-06-10 08:13:08 -04:00

319 lines
2.9 KiB
Plaintext
Raw Permalink Blame History

This file contains ambiguous Unicode characters
This file contains Unicode characters that might be confused with other characters. If you think that this is intentional, you can safely ignore this warning. Use the Escape button to reveal them.
//TJADB Project
TITLE:O2
TITLEJA:O2
SUBTITLE:--ORANGE RANGE/Code Geass: Lelouch of the Rebellion R2
BPM:170
WAVE:O2.ogg
OFFSET:-1.633
DEMOSTART:65.162
COURSE:Oni
LEVEL:7
BALLOON:10
SCOREINIT:640
SCOREDIFF:160
#START
30020020,
30020020,
30020110,
12010110,
3220,
30210110,
30220101,
2010201022201110,
30121010,
1000102010001011,
1000102010001011,
1020101020111020,
10121010,
1000102010001011,
11210120,
33330040,
11201020,
11201122,
11201020,
11201122,
11201020,
11201122,
1010200011102000,
33334040,
10210121,
10210122,
10210121,
10210122,
10210121,
10210122,
10210121,
10210210,
1110201110201110,
2011102011102020,
1110101020020020,
1110101020020020,
10210212,
1000201000112020,
10210212,
1000201110101010,
1000201000111000,
01212120,
1000201000111000,
01203333,
0003,
#GOGOSTART
1000201011102010,
1000201011102010,
1110201011102010,
1010201000112000,
1110202011102000,
1110201000112010,
1110201011102010,
30330300,
1000201011102010,
1000201011102010,
1110201011102010,
1010201000112000,
1110202011102000,
1110201000112000,
1110201011102010,
30330440,
7008,
1111,
11122211,
12211120,
#MEASURE 2/4
#GOGOEND
30,
#END
COURSE:Hard
LEVEL:5
BALLOON:21
SCOREINIT:780
SCOREDIFF:210
#START
3,
3,
3,
11010000,
1110,
10010000,
10010000,
10110100,
10120010,
10120010,
10120010,
12010000,
10120010,
10120010,
10120120,
33330000,
11201020,
11201000,
11201020,
11201000,
11201020,
11201000,
11201020,
3,
10210020,
10210110,
10210020,
10210220,
10210020,
10210110,
10210020,
10210220,
11110220,
10101110,
11102220,
11102220,
10210220,
10210000,
10210220,
10210000,
10210110,
01201110,
10210110,
01203333,
,
#GOGOSTART
10210121,
10210120,
10210121,
10210000,
11111000,
11110000,
11210121,
10210100,
10210121,
10210120,
10210121,
10210000,
11111000,
11110000,
11210121,
1000201000101110,
10210120,
1212,
7,
000000000000000000000000000000000000000000000008,
#GOGOEND
0,
#END
COURSE:Normal
LEVEL:4
BALLOON:10
SCOREINIT:1030
SCOREDIFF:310
#START
3,
10010000,
3,
10010000,
3,
10110000,
3010,
10110000,
1110,
1120,
1110,
1020,
1110,
1120,
10110000,
3,
1020,
1110,
1020,
1110,
1020,
1110,
1020,
3300,
10001100,
1110,
10001100,
1110,
10001100,
1110,
10001100,
1020,
11100000,
1120,
11100000,
11100000,
1120,
1120,
1120,
1,
10010010,
00001110,
10010010,
0033,
,
#GOGOSTART
10010010,
10010000,
10010010,
1,
10111000,
1100,
10111000,
1,
10010010,
10010000,
10010010,
1,
10111000,
10110000,
10110000,
1110,
5080,
1111,
7,
000000000000000000000000000000000000000000000008,
#GOGOEND
0,
#END
COURSE:Easy
LEVEL:3
BALLOON:5,7
SCOREINIT:820
SCOREDIFF:290
#START
3,
1110,
1010,
1110,
3,
1110,
1010,
1110,
3010,
1110,
1010,
1110,
1010,
1110,
1010,
3,
1010,
1,
1010,
1,
1010,
1,
1010,
3,
1010,
1110,
1010,
1,
1010,
1110,
1010,
1,
2200,
1020,
2200,
1020,
2200,
1020,
2200,
1,
7,
00080000,
7,
00000008,
,
#GOGOSTART
1001,
1001,
1010,
1,
1110,
1020,
1110,
1,
1001,
1001,
1010,
1,
1110,
1020,
1110,
1020,
5080,
1010,
3,
0003,
#MEASURE 2/4
#GOGOEND
3,
#END