Files
Yonokid b37e548c81 Add thonk's contributions
New Songs:
Ashura-chan
Bansanka
CITRUS
Feel Special
Homenobi
I LOVE
Ichizu
Iroha Step
Kassai
Koigeba
Nani Yatte mo Umaku Ikanai
Nenenenenenene! Daibakusou
Overd
Plastic Love
Practice Love
Smile & Go!!
The Distance of Love
The Power Of Love
Timing
1 2 3 (2019)
ALIVE
Bling-Bang-Bang-Born
Doraemon
Gotoubun no Kimochi
Here Comes Char
Moonlight Densetsu -AC3 Version-
Moonlight Densetsu -Anime Matsuri Version-
Shishunki o Koroshita Shounen no Tsubasa
Zankyou Sanka
Lavie
Villain
HaneMari Taisou
Ore Koso Only One
Akiba 20XX
Bakuretsu Thaumazein (Prod. Chibanyan)
Crush (Prod SHOW)
good night baby (feat. Moe Shop)
IAM (feat. Shogo, Tsubasa)
Lassen Gorelai
Caprice No24
Kawachi Ondo Fushi-zukushi
Amefuri no Rondo
ESCAPE FROM CRISIS
Genesis Ray
GOING TO LUNATEA
Incompatible Thoughts
Kirby Star Allies Medley
Sonic the Hedgehog Medley
Thank You!
The Legend of Zelda Main Theme
We are PAC-MAN!
Aosagi no Hi
Little White Witch
Megamina Sekai III
Otomushi o Hibikasero
POLARiSNAUT
2024-08-08 19:48:37 -04:00

312 lines
3.8 KiB
Plaintext

//TJADB Project
TITLE:Timing
TITLEJA:Timing ~タイミング~
SUBTITLE:--
SUBTITLEJA:
BPM:126
WAVE:Timing.ogg
OFFSET:-2.042
DEMOSTART:49.631
COURSE:Oni
LEVEL:8
BALLOON:
SCOREINIT:790,2360
SCOREDIFF:220
#START
0,
3020102210021022,
1020100011102220,
3020102210021022,
1110400011104000,
3020102210021022,
1020102011102220,
3020102212021000,
1030030030030030, //9
1011200010102020,
1011200010102020,
1011200011102220,
1000102210201210,
1011200010102020,
1011200010102020,
1011201010102020,
1000102210102210, //17
1020122010221011,
1020122010102000,
1020122010221020,
1002102010211210,
1020122010221011,
1020122010002010,
1202102010102020,
600000000000000000000000000008000000000000000000, //25
#GOGOSTART
1020102210201022,
1020112012021022,
1020102210201022,
1333,
1020102210201022,
1120112010001202,
1000120210001200,
600000000000000000000000000008000000000000000000, //33
1020102210201022,
1020112012021022,
1020102210201022,
1333,
1020102210201022,
1120112010001022,
1000122210001200,
600000000000000000000000000000000008000000000000, //41
#GOGOEND
500000000008000000500000000008000000500000000008,
0010120210101202,
1000102210021022,
1110400011104000,
500000000008000000500000000008000000500000000008,
0010120210101202,
1000102210021222,
1030030030030030,
1111010101011030,
0, //51
#END
COURSE:Hard
LEVEL:6
BALLOON:12,12,14
SCOREINIT:940,3630
SCOREDIFF:280
#START
0,
30101120,
1000100011102020,
30101120,
3434,
30101120,
1000100011102020,
30101120,
70000008, //9
10201120,
10201120,
10201122,
1000101110000000,
10201120,
10201120,
10201122,
1000101110000010, //17
1020100010201005,
000000000000000000000000000008000000000000100000,
12101210,
100000000100100000500000000000008000000000100000,
1020100010201005,
000000000000000000000000000008000000000000100000,
1001102010102020,
600000000000000000000000000008000000000000000000, //25
#GOGOSTART
1000201110002011,
100000200000100000500000000000000008000000000000,
1000201110002011,
1333,
1000201110002011,
1020102000002202,
1000220210002200,
600000000000000000000000000008000000000000000000, //33
1000201110002011,
100000200000100000500000000000000008000000000000,
1000201110002011,
1333,
1000201110002011,
1020102000002022,
1000222210002200,
600000000000000000000000000000000008000000000000, //41
#GOGOEND
30101120,
1000100011102020,
30101120,
3434,
30101120,
1000100011102020,
30101120,
70000008,
900000000000000000000000000000000009000000000008,
0, //51
#END
COURSE:Normal
LEVEL:4
BALLOON:9,9,10
SCOREINIT:960,5420
SCOREDIFF:360
#START
0,
3112,
10101110,
3112,
3434,
3112,
10101110,
3112,
70000008, //9
1011,
1011,
1022,
22,
1011,
1011,
1022,
22, //17
1000200010001005,
000000000000000000000000000008000000000000000000,
1211,
2,
1000200010001005,
000000000000000000000000000008000000000000000000,
10201110,
600000000000000000000000000008000000000000000000, //25
#GOGOSTART
1212,
10110000,
1212,
0333,
1212,
10110020,
3232,
600000000000000000000000000008000000000000000000, //33
1212,
10110000,
1212,
0333,
1212,
10110020,
3232,
600000000000000000000000000000000008000000000000, //41
#GOGOEND
3112,
10101110,
3112,
3434,
3112,
10101110,
3112,
70000008,
900000000000000000000000000000000009000000000008,
0, //51
#END
COURSE:Easy
LEVEL:2
BALLOON:5,5,8
SCOREINIT:950,9300
SCOREDIFF:643
#START
0,
31,
1011,
31,
44,
31,
1011,
31,
70000800, //9
1,
1,
1,
22,
1,
1,
1,
22, //17
1000000010000005,
000000000000000000000000000008000000000000000000,
11,
2,
1000000010000005,
000000000000000000000000000008000000000000000000,
1011,
600000000000000000000000000008000000000000000000, //25
#GOGOSTART
11,
1100,
11,
0333,
11,
1100,
33,
600000000000000000000000000008000000000000000000, //33
11,
1100,
11,
0333,
12,
1100,
33,
600000000000000000000000000008000000000000000000, //41
#GOGOEND
31,
1011,
31,
44,
31,
1011,
31,
70000800,
900000000000000000000000000000000009000000000008,
0, //51
#END