Files
Thonker2 afc05afb29 NS2+AC16 New Charts + some AC Red Chart Fixes
01 Pop
365-po no March
Bai Bai FIGHT!
RuLe
365 Nichi no Kamihikouki (Fix: Balloon Count and #47 on Hard)
Minna Ga Minna Eiyuu (Fix: Balloon Count on Normal)

02 Anime
Ikenai Borderline (minor scoring and balloon updates)
Itsumo Nando Demo (Fix: #71 on Normal/Easy)
Start Line! (minor scoring and balloon updates)

03 Vocaloid
Ghost Rule (Fix: Balloon Count on Oni/Normal, BPM/HS/Measure for Sub-Oni)

04 Children and Folk
Osakana Mainichi! Sakana-kun (Fix: BPM/HS for All Charts)

06 Classical
Tokyo Ondo
Fuji no Yama (Moved from "04 Children and Folk" folder, Updated to NS2 chart (from CS7) and added RT Chart)
Furusato (Moved from "04 Children and Folk" folder, Added NS2 chart and fixed RT Chart)

07 Game Music
Over Clock ~Kaihou~ (Fix: HS on Oni, added SUBTITLEJA)

09 Namco Original
Senkou Tenbu
2025-07-05 20:36:14 +08:00

369 lines
2.8 KiB
Plaintext

//TJADB Project
TITLE:Furusato
TITLEJA:ふるさと
SUBTITLE:--Sadakazu Okano
SUBTITLEJA:
BPM:79.994
WAVE:Furusato.ogg
OFFSET:-5.134
DEMOSTART:9.628
COURSE:Oni
LEVEL:1
BALLOON:
SCOREINIT:1240,5900
SCOREDIFF:495
#START
#MEASURE 3/4
222,
2,
111,
100110,
222,
500000000000000008000000000000000000,
222,
200220,
111,
500000000000000008000000000000000000, //10
#GOGOSTART
111020,
111020,
111001,
200000200000500000000008000000000000,
222,
100110,
443,
600000000000000008000000000000000000, //18
#GOGOEND
111,
100110,
222,
500000000000000008000000000000000000,
222,
200220,
111,
500000000000000008000000000000000000, //26
#GOGOSTART
111020,
111020,
111001,
200000200000500000000008000000000000,
222,
100110,
443,
600000000000000008000000000000000000,
101212,
101122,
101210,
1, //38
#GOGOEND
111,
100110,
221,
500000000000000008000000000000000000,
222,
200220,
112,
500000000000000008000000000000000000, //46
#GOGOSTART
111020,
111020,
111001,
200000200000500000000008000000000000,
222,
100110,
443,
600000000000000008000000000000000000,
101212,
101122,
101210,
1,
#GOGOEND
0, //59
#END
COURSE:Hard
LEVEL:1
BALLOON:
SCOREINIT:1030,6220
SCOREDIFF:425
#START
#MEASURE 3/4
202,
2,
111,
100110,
111,
1,
111,
100110,
111,
1, //10
#GOGOSTART
112,
112,
111001,
100000100000500000000008000000000000,
111,
100110,
333,
600000000000000008000000000000000000, //18
#GOGOEND
111,
100110,
111,
1,
111,
100110,
111,
1, //26
#GOGOSTART
112,
112,
111001,
100000100000500000000008000000000000,
111,
100110,
333,
600000000000000008000000000000000000,
101110,
122,
101110,
1, //38
#GOGOEND
111,
100110,
112,
2,
111,
100110,
111,
1, //46
#GOGOSTART
112,
112,
111002,
200000200000500000000008000000000000,
111,
100110,
333,
600000000000000008000000000000000000,
101110,
122,
101110,
1,
#GOGOEND
0, //59
#END
COURSE:Normal
LEVEL:1
BALLOON:
SCOREINIT:980,8400
SCOREDIFF:675
#START
#MEASURE 3/4
2,
2,
1,
1,
101,
1,
1,
1,
101,
1, //10
#GOGOSTART
110,
110,
120,
120,
101,
101,
333,
600000000000000008000000000000000000, //18
#GOGOEND
1,
1,
101,
1,
1,
1,
101,
1, //26
#GOGOSTART
110,
110,
120,
120,
101,
101,
333,
600000000000000008000000000000000000,
333,
3,
333,
3, //38
#GOGOEND
1,
1,
202,
2,
1,
1,
101,
1, //46
#GOGOSTART
110,
110,
120,
120,
101,
101,
333,
600000000000000008000000000000000000,
333,
3,
333,
3,
#GOGOEND
0, //59
#END
COURSE:Easy
LEVEL:1
BALLOON:
SCOREINIT:1040,11800
SCOREDIFF:925
#START
#MEASURE 3/4
0,
0,
1,
0,
1,
1,
1,
0,
1,
1, //10
#GOGOSTART
1,
1,
110,
110,
1,
1,
333,
600000000000000008000000000000000000, //18
#GOGOEND
1,
0,
1,
1,
1,
0,
1,
1, //26
#GOGOSTART
1,
1,
110,
110,
1,
1,
333,
600000000000000008000000000000000000,
330,
3,
330,
3, //38
#GOGOEND
1,
0,
2,
2,
1,
0,
1,
1, //46
#GOGOSTART
1,
1,
110,
220,
1,
1,
333,
600000000000000008000000000000000000,
330,
3,
330,
3,
#GOGOEND
0, //59
#END