720 lines
11 KiB
Plaintext
720 lines
11 KiB
Plaintext
//TJADB Project
|
||
TITLE:Radetzky March
|
||
TITLEJA:ラデツキー行進曲
|
||
SUBTITLE:--Johann Strauss Ⅰ
|
||
SUBTITLEJA:J.シュトラウス(1世)
|
||
BPM:121.6
|
||
WAVE:Radetzky March.ogg
|
||
OFFSET:-2.119
|
||
DEMOSTART:14.142
|
||
|
||
COURSE:Oni
|
||
LEVEL:7
|
||
BALLOON:10
|
||
SCOREINIT:510
|
||
SCOREDIFF:133
|
||
|
||
|
||
#START
|
||
|
||
|
||
#GOGOSTART
|
||
1110111010101000,
|
||
#SCROLL 1.03
|
||
#BPMCHANGE 117.04
|
||
100100100100100000100000100000000000000000101010,
|
||
#SCROLL 1
|
||
#BPMCHANGE 120.89
|
||
100111100111100100100111,
|
||
#SCROLL 1.01
|
||
#BPMCHANGE 120.1
|
||
100111100111100100100111,
|
||
#BPMCHANGE 119.75
|
||
100200200111100200200111,
|
||
#BPMCHANGE 120.01
|
||
1020102010112211,
|
||
#BPMCHANGE 120.34
|
||
100111100111100100100111,
|
||
100000101010100000101010100000100000100000100100,
|
||
#BPMCHANGE 119.58
|
||
12201220,
|
||
#BPMCHANGE 120.23
|
||
1001111110303000,
|
||
|
||
#GOGOEND
|
||
#BPMCHANGE 118.46
|
||
#SCROLL 1.02
|
||
500000000000000000000000000000000008000000000000,
|
||
#SCROLL 1.01
|
||
#BPMCHANGE 120.01
|
||
7000000000080000,
|
||
#BPMCHANGE 120.36
|
||
1000100110001000,
|
||
#BPMCHANGE 120.1
|
||
2022201020222010,
|
||
#BPMCHANGE 120.4
|
||
#SCROLL 1
|
||
1000100110001000,
|
||
2022201020222010,
|
||
#BPMCHANGE 120.01
|
||
#SCROLL 1.01
|
||
2022202220222022,
|
||
#BPMCHANGE 118.76
|
||
#SCROLL 1.02
|
||
200000000000000000000111,
|
||
|
||
#GOGOSTART
|
||
#BPMCHANGE 119.75
|
||
#SCROLL 1.01
|
||
100111100111100100100111,
|
||
#BPMCHANGE 120.05
|
||
100111100111100100100111,
|
||
#BPMCHANGE 120.36
|
||
100200200111100200200111,
|
||
#BPMCHANGE 119.84
|
||
1020102010111111,
|
||
#BPMCHANGE 120.54
|
||
#SCROLL 1
|
||
100111100111100100100111,
|
||
#BPMCHANGE 119.53
|
||
#SCROLL 1.01
|
||
100000101010100000101010100000100000100000100100,
|
||
#BPMCHANGE 120.58
|
||
#SCROLL 1
|
||
12201220,
|
||
#BPMCHANGE 119.75
|
||
#SCROLL 1.01
|
||
1001111110303000,
|
||
#BPMCHANGE 120.58
|
||
#SCROLL 1
|
||
10011111,
|
||
#BPMCHANGE 116.83
|
||
#SCROLL 1.04
|
||
1022202020000000,
|
||
|
||
#GOGOEND
|
||
#BPMCHANGE 121.78
|
||
#SCROLL 0.99
|
||
1120200011202000,
|
||
#BPMCHANGE 120.71
|
||
#SCROLL 1
|
||
1120102010000000,
|
||
#BPMCHANGE 119.32
|
||
#SCROLL 1.01
|
||
1120102011202000,
|
||
#BPMCHANGE 120.01
|
||
1120102010000000,
|
||
#BPMCHANGE 119.32
|
||
1120200011202000,
|
||
#BPMCHANGE 120.19
|
||
1120102010000000,
|
||
#BPMCHANGE 120.36
|
||
1120102011202000,
|
||
#BPMCHANGE 120.19
|
||
1120112010000000,
|
||
#BPMCHANGE 120.1
|
||
1011101020222020,
|
||
#BPMCHANGE 119.75
|
||
1011101021212000,
|
||
#BPMCHANGE 119.92
|
||
1011101020222020,
|
||
#BPMCHANGE 118.63
|
||
#SCROLL 1.02
|
||
0011101110000000,
|
||
#BPMCHANGE 120.98
|
||
#SCROLL 1
|
||
1120200011202000,
|
||
#BPMCHANGE 119.15
|
||
#SCROLL 1.02
|
||
1120102010000000,
|
||
#BPMCHANGE 120.89
|
||
#SCROLL 1
|
||
1120102011202000,
|
||
#BPMCHANGE 120.14
|
||
#SCROLL 1.01
|
||
1120112010000000,
|
||
#BPMCHANGE 119.79
|
||
1011101020222020,
|
||
#BPMCHANGE 120.19
|
||
1011101021212000,
|
||
#BPMCHANGE 119.06
|
||
#SCROLL 1.02
|
||
1011101020222020,
|
||
#BPMCHANGE 120.23
|
||
#SCROLL 1.01
|
||
0011101110000000,
|
||
#BPMCHANGE 119.49
|
||
1121202011212020,
|
||
#BPMCHANGE 120.14
|
||
1121201020000000,
|
||
#BPMCHANGE 119.92
|
||
1111200011112000,
|
||
#BPMCHANGE 120.89
|
||
#SCROLL 1
|
||
1110111030303000,
|
||
|
||
#GOGOSTART
|
||
#BPMCHANGE 119.49
|
||
#SCROLL 1.01
|
||
1110111030303000,
|
||
#BPMCHANGE 119.06
|
||
#SCROLL 1.02
|
||
100100100100100000100000100000000000000000101010,
|
||
#BPMCHANGE 120.36
|
||
#SCROLL 1.01
|
||
100111100111100200200111,
|
||
#BPMCHANGE 119.49
|
||
100111100111100200200111,
|
||
#BPMCHANGE 120.19
|
||
100200200111100200200111,
|
||
#BPMCHANGE 119.4
|
||
1020102010112211,
|
||
#BPMCHANGE 120.47
|
||
#SCROLL 1
|
||
100111100111100100100111,
|
||
#BPMCHANGE 120.34
|
||
#SCROLL 1.01
|
||
100000101010100000101010100000100000100000100100,
|
||
#BPMCHANGE 120.1
|
||
1020201110202000,
|
||
#BPMCHANGE 119.92
|
||
1001111110303000,
|
||
|
||
#GOGOEND
|
||
|
||
|
||
#END
|
||
|
||
|
||
COURSE:Hard
|
||
LEVEL:7
|
||
BALLOON:8
|
||
SCOREINIT:550
|
||
SCOREDIFF:153
|
||
|
||
|
||
#START
|
||
|
||
|
||
#GOGOSTART
|
||
1110111010101000,
|
||
#BPMCHANGE 117.04
|
||
#SCROLL 1.03
|
||
1111101010000011,
|
||
#BPMCHANGE 120.89
|
||
#SCROLL 1
|
||
1011101110101011,
|
||
#BPMCHANGE 120.1
|
||
#SCROLL 1.01
|
||
1011101110101000,
|
||
#BPMCHANGE 119.75
|
||
12201220,
|
||
#BPMCHANGE 120.01
|
||
12121000,
|
||
#BPMCHANGE 120.34
|
||
1011101110101011,
|
||
1011101110101000,
|
||
#BPMCHANGE 119.58
|
||
12201220,
|
||
#BPMCHANGE 120.23
|
||
1001111110303000,
|
||
|
||
#BPMCHANGE 118.46
|
||
#SCROLL 1.02
|
||
#GOGOEND
|
||
500000000000000000000000000000000008000000000000,
|
||
#BPMCHANGE 120.01
|
||
#SCROLL 1.01
|
||
7000000000080000,
|
||
#BPMCHANGE 120.36
|
||
1000100110001000,
|
||
#BPMCHANGE 120.1
|
||
2022201020222000,
|
||
#BPMCHANGE 120.4
|
||
#SCROLL 1
|
||
1000100110001000,
|
||
2022201020222010,
|
||
#BPMCHANGE 120.01
|
||
#SCROLL 1.01
|
||
2022202220222022,
|
||
#BPMCHANGE 118.76
|
||
#SCROLL 1.02
|
||
2000000000000011,
|
||
|
||
#BPMCHANGE 119.75
|
||
#SCROLL 1.01
|
||
#GOGOSTART
|
||
1011101110101011,
|
||
#BPMCHANGE 120.05
|
||
1011101110101000,
|
||
#BPMCHANGE 120.36
|
||
12201220,
|
||
#BPMCHANGE 119.84
|
||
12121000,
|
||
#BPMCHANGE 120.54
|
||
#SCROLL 1
|
||
1011101110101011,
|
||
#BPMCHANGE 119.53
|
||
#SCROLL 1.01
|
||
1011101110101000,
|
||
#BPMCHANGE 120.58
|
||
#SCROLL 1
|
||
12201220,
|
||
#BPMCHANGE 119.75
|
||
#SCROLL 1.01
|
||
1001111110303000,
|
||
#BPMCHANGE 120.58
|
||
#SCROLL 1
|
||
10011111,
|
||
#BPMCHANGE 116.83
|
||
#SCROLL 1.04
|
||
1022202020000000,
|
||
|
||
#BPMCHANGE 121.78
|
||
#SCROLL 0.99
|
||
#GOGOEND
|
||
10201120,
|
||
#BPMCHANGE 120.71
|
||
#SCROLL 1
|
||
10221000,
|
||
#BPMCHANGE 119.32
|
||
#SCROLL 1.01
|
||
1000202011102000,
|
||
#BPMCHANGE 120.01
|
||
10221000,
|
||
#BPMCHANGE 119.32
|
||
10201120,
|
||
#BPMCHANGE 120.19
|
||
10221000,
|
||
#BPMCHANGE 120.36
|
||
1000202011102000,
|
||
#BPMCHANGE 120.19
|
||
1110111010000000,
|
||
#BPMCHANGE 120.1
|
||
1011100020202020,
|
||
#BPMCHANGE 119.75
|
||
1011100020202000,
|
||
#BPMCHANGE 119.92
|
||
1011100020202020,
|
||
#BPMCHANGE 118.63
|
||
#SCROLL 1.02
|
||
1000001110000000,
|
||
#BPMCHANGE 120.98
|
||
#SCROLL 1
|
||
10201120,
|
||
#BPMCHANGE 119.15
|
||
#SCROLL 1.02
|
||
10221000,
|
||
#BPMCHANGE 120.89
|
||
#SCROLL 1
|
||
1000202011102000,
|
||
#BPMCHANGE 120.14
|
||
#SCROLL 1.01
|
||
1110111010000000,
|
||
#BPMCHANGE 119.79
|
||
1011100020202020,
|
||
#BPMCHANGE 120.19
|
||
1011100020202000,
|
||
#BPMCHANGE 119.06
|
||
#SCROLL 1.02
|
||
1011100020202020,
|
||
#BPMCHANGE 120.23
|
||
#SCROLL 1.01
|
||
1000001110000000,
|
||
#BPMCHANGE 119.49
|
||
1111102011111020,
|
||
#BPMCHANGE 120.14
|
||
1111102020000000,
|
||
#BPMCHANGE 119.92
|
||
1111100011111000,
|
||
#BPMCHANGE 120.89
|
||
#SCROLL 1
|
||
1110111010101000,
|
||
|
||
#BPMCHANGE 119.49
|
||
#SCROLL 1.01
|
||
#GOGOSTART
|
||
1110111030303000,
|
||
#BPMCHANGE 119.06
|
||
#SCROLL 1.02
|
||
1111101010000011,
|
||
#BPMCHANGE 120.36
|
||
#SCROLL 1.01
|
||
1011101110101011,
|
||
#BPMCHANGE 119.49
|
||
1011101110101000,
|
||
#BPMCHANGE 120.19
|
||
12201220,
|
||
#BPMCHANGE 119.4
|
||
12121000,
|
||
#BPMCHANGE 120.47
|
||
#SCROLL 1
|
||
1011101110101011,
|
||
#BPMCHANGE 120.34
|
||
#SCROLL 1.01
|
||
1011101110101000,
|
||
#BPMCHANGE 120.1
|
||
12201220,
|
||
#BPMCHANGE 119.92
|
||
1001111110303000,
|
||
|
||
#GOGOEND
|
||
|
||
|
||
#END
|
||
|
||
|
||
COURSE:Normal
|
||
LEVEL:6
|
||
SCOREINIT:590
|
||
SCOREDIFF:170
|
||
|
||
|
||
#START
|
||
|
||
|
||
#GOGOSTART
|
||
1110100010101000,
|
||
#BPMCHANGE 117.04
|
||
#SCROLL 1.03
|
||
1011100010000000,
|
||
#BPMCHANGE 120.89
|
||
#SCROLL 1
|
||
1011100010001000,
|
||
#BPMCHANGE 120.1
|
||
#SCROLL 1.01
|
||
1011100010000000,
|
||
#BPMCHANGE 119.75
|
||
1212,
|
||
#BPMCHANGE 120.01
|
||
12121000,
|
||
#BPMCHANGE 120.34
|
||
1011100010001000,
|
||
1011100010000000,
|
||
#BPMCHANGE 119.58
|
||
1212,
|
||
#BPMCHANGE 120.23
|
||
11103330,
|
||
|
||
#BPMCHANGE 118.46
|
||
#SCROLL 1.02
|
||
#GOGOEND
|
||
500000000000000000000000000000000008000000000000,
|
||
#BPMCHANGE 120.01
|
||
#SCROLL 1.01
|
||
500000000000000000000000000000000008000000000000,
|
||
#BPMCHANGE 120.36
|
||
1000000110000000,
|
||
#BPMCHANGE 120.1
|
||
22202220,
|
||
#BPMCHANGE 120.4
|
||
#SCROLL 1
|
||
1000000110000000,
|
||
2222,
|
||
#BPMCHANGE 120.01
|
||
#SCROLL 1.01
|
||
2022200020222000,
|
||
#BPMCHANGE 118.76
|
||
#SCROLL 1.02
|
||
4,
|
||
|
||
#BPMCHANGE 119.75
|
||
#SCROLL 1.01
|
||
#GOGOSTART
|
||
1011100010101000,
|
||
#BPMCHANGE 120.05
|
||
1011100010101000,
|
||
#BPMCHANGE 120.36
|
||
1212,
|
||
#BPMCHANGE 119.84
|
||
12121000,
|
||
#BPMCHANGE 120.54
|
||
#SCROLL 1
|
||
1011100010101000,
|
||
#BPMCHANGE 119.53
|
||
#SCROLL 1.01
|
||
1011100010101000,
|
||
#BPMCHANGE 120.58
|
||
#SCROLL 1
|
||
1212,
|
||
#BPMCHANGE 119.75
|
||
#SCROLL 1.01
|
||
11103330,
|
||
#BPMCHANGE 120.58
|
||
#SCROLL 1
|
||
1011,
|
||
#BPMCHANGE 118.83
|
||
#SCROLL 1.04
|
||
10222000,
|
||
|
||
#BPMCHANGE 121.78
|
||
#SCROLL 0.99
|
||
#GOGOEND
|
||
10201120,
|
||
#BPMCHANGE 120.71
|
||
#SCROLL 1
|
||
11201000,
|
||
#BPMCHANGE 119.32
|
||
#SCROLL 1.01
|
||
10201120,
|
||
#BPMCHANGE 120.01
|
||
11201000,
|
||
#BPMCHANGE 119.32
|
||
10201120,
|
||
#BPMCHANGE 120.19
|
||
11201000,
|
||
#BPMCHANGE 120.36
|
||
11201120,
|
||
#BPMCHANGE 120.19
|
||
1110111010000000,
|
||
#BPMCHANGE 120.1
|
||
1011100020002000,
|
||
#BPMCHANGE 119.75
|
||
1011100020000000,
|
||
#BPMCHANGE 119.92
|
||
1011100020002000,
|
||
#BPMCHANGE 118.63
|
||
#SCROLL 1.02
|
||
1011100030000000,
|
||
#BPMCHANGE 120.98
|
||
#SCROLL 1
|
||
10201120,
|
||
#BPMCHANGE 119.15
|
||
#SCROLL 1.02
|
||
11201000,
|
||
#BPMCHANGE 120.89
|
||
#SCROLL 1
|
||
11201120,
|
||
#BPMCHANGE 120.14
|
||
#SCROLL 1.01
|
||
1110111010000000,
|
||
#BPMCHANGE 119.79
|
||
1011100020002000,
|
||
#BPMCHANGE 120.19
|
||
1011100020000000,
|
||
#BPMCHANGE 119.06
|
||
#SCROLL 1.02
|
||
1011100020002000,
|
||
#BPMCHANGE 120.23
|
||
#SCROLL 1.01
|
||
1011100030000000,
|
||
#BPMCHANGE 119.49
|
||
1011100020202000,
|
||
#BPMCHANGE 120.14
|
||
1011100020000000,
|
||
#BPMCHANGE 119.92
|
||
1011100020202000,
|
||
#BPMCHANGE 120.89
|
||
#SCROLL 1
|
||
1010111010101000,
|
||
|
||
#BPMCHANGE 119.49
|
||
#SCROLL 1.01
|
||
#GOGOSTART
|
||
1110100030303000,
|
||
#BPMCHANGE 119.06
|
||
#SCROLL 1.02
|
||
1011100010000000,
|
||
#BPMCHANGE 120.36
|
||
#SCROLL 1.01
|
||
1011100010001000,
|
||
#BPMCHANGE 119.49
|
||
1011100010000000,
|
||
#BPMCHANGE 120.19
|
||
1212,
|
||
#BPMCHANGE 119.4
|
||
12121000,
|
||
#BPMCHANGE 120.47
|
||
#SCROLL 1
|
||
1011100010101000,
|
||
#BPMCHANGE 120.34
|
||
#SCROLL 1.01
|
||
1011100010101000,
|
||
#BPMCHANGE 120.1
|
||
12201220,
|
||
#BPMCHANGE 119.92
|
||
11103330,
|
||
|
||
#GOGOEND
|
||
|
||
|
||
#END
|
||
|
||
|
||
COURSE:Easy
|
||
LEVEL:5
|
||
SCOREINIT:590
|
||
SCOREDIFF:220
|
||
|
||
|
||
#START
|
||
|
||
|
||
#GOGOSTART
|
||
10101110,
|
||
#BPMCHANGE 117.04
|
||
#SCROLL 1.03
|
||
11,
|
||
#BPMCHANGE 120.89
|
||
#SCROLL 1
|
||
10001110,
|
||
#BPMCHANGE 120.1
|
||
#SCROLL 1.01
|
||
10001110,
|
||
#BPMCHANGE 119.75
|
||
12,
|
||
#BPMCHANGE 120.01
|
||
1110,
|
||
#BPMCHANGE 120.34
|
||
10001110,
|
||
10001110,
|
||
#BPMCHANGE 119.58
|
||
12,
|
||
#BPMCHANGE 120.23
|
||
1033,
|
||
|
||
#BPMCHANGE 118.46
|
||
#SCROLL 1.02
|
||
#GOGOEND
|
||
500000000000000000000000000000000008000000000000,
|
||
#BPMCHANGE 120.01
|
||
#SCROLL 1.01
|
||
500000000000000000000000000000000008000000000000,
|
||
#BPMCHANGE 120.36
|
||
11,
|
||
#BPMCHANGE 120.1
|
||
22,
|
||
#BPMCHANGE 120.4
|
||
#SCROLL 1
|
||
11,
|
||
22,
|
||
#BPMCHANGE 120.01
|
||
#SCROLL 1.01
|
||
2222,
|
||
#BPMCHANGE 118.76
|
||
#SCROLL 1.02
|
||
2,
|
||
|
||
#BPMCHANGE 119.75
|
||
#SCROLL 1.01
|
||
#GOGOSTART
|
||
10001110,
|
||
#BPMCHANGE 120.05
|
||
10001110,
|
||
#BPMCHANGE 120.36
|
||
12,
|
||
#BPMCHANGE 119.84
|
||
1110,
|
||
#BPMCHANGE 120.54
|
||
#SCROLL 1
|
||
10101110,
|
||
#BPMCHANGE 119.53
|
||
#SCROLL 1.01
|
||
10101110,
|
||
#BPMCHANGE 120.58
|
||
#SCROLL 1
|
||
12,
|
||
#BPMCHANGE 119.75
|
||
#SCROLL 1.01
|
||
1033,
|
||
#BPMCHANGE 120.58
|
||
#SCROLL 1
|
||
1011,
|
||
#BPMCHANGE 116.83
|
||
#SCROLL 1.04
|
||
1,
|
||
|
||
#BPMCHANGE 121.78
|
||
#SCROLL 0.99
|
||
#GOGOEND
|
||
11,
|
||
#BPMCHANGE 120.71
|
||
#SCROLL 1
|
||
1120,
|
||
#BPMCHANGE 119.32
|
||
#SCROLL 1.01
|
||
11,
|
||
#BPMCHANGE 120.01
|
||
1120,
|
||
#BPMCHANGE 119.32
|
||
22,
|
||
#BPMCHANGE 120.19
|
||
1120,
|
||
#BPMCHANGE 120.36
|
||
22,
|
||
#BPMCHANGE 120.19
|
||
1120,
|
||
#BPMCHANGE 120.1
|
||
10002220,
|
||
#BPMCHANGE 119.75
|
||
12,
|
||
#BPMCHANGE 119.92
|
||
10002220,
|
||
#BPMCHANGE 118.63
|
||
#SCROLL 1.02
|
||
12,
|
||
#BPMCHANGE 120.98
|
||
#SCROLL 1
|
||
1210,
|
||
#BPMCHANGE 119.15
|
||
#SCROLL 1.02
|
||
1120,
|
||
#BPMCHANGE 120.89
|
||
#SCROLL 1
|
||
1210,
|
||
#BPMCHANGE 120.14
|
||
#SCROLL 1.01
|
||
1120,
|
||
#BPMCHANGE 119.79
|
||
10002220,
|
||
#BPMCHANGE 120.19
|
||
12,
|
||
#BPMCHANGE 119.06
|
||
#SCROLL 1.02
|
||
10002220,
|
||
#BPMCHANGE 120.23
|
||
#SCROLL 1.01
|
||
12,
|
||
#BPMCHANGE 119.49
|
||
10102220,
|
||
#BPMCHANGE 120.14
|
||
12,
|
||
#BPMCHANGE 119.92
|
||
10102220,
|
||
#BPMCHANGE 120.89
|
||
#SCROLL 1
|
||
12,
|
||
|
||
#BPMCHANGE 119.49
|
||
#SCROLL 1.01
|
||
#GOGOSTART
|
||
3330,
|
||
#BPMCHANGE 119.06
|
||
#SCROLL 1.02
|
||
11101000,
|
||
#BPMCHANGE 120.36
|
||
#SCROLL 1.01
|
||
10101110,
|
||
#BPMCHANGE 119.49
|
||
1110,
|
||
#BPMCHANGE 120.19
|
||
1122,
|
||
#BPMCHANGE 119.4
|
||
11,
|
||
#BPMCHANGE 120.47
|
||
#SCROLL 1
|
||
10101110,
|
||
#BPMCHANGE 120.34
|
||
#SCROLL 1.01
|
||
1110,
|
||
#BPMCHANGE 120.1
|
||
1122,
|
||
#BPMCHANGE 119.92
|
||
1033,
|
||
|
||
#GOGOEND
|
||
|
||
|
||
#END
|
||
|