Files
2025-05-30 11:10:44 -04:00

1100 lines
14 KiB
Plaintext
Raw Permalink Blame History

This file contains ambiguous Unicode characters
This file contains Unicode characters that might be confused with other characters. If you think that this is intentional, you can safely ignore this warning. Use the Escape button to reveal them.
//TJADB Project
TITLE:GORI × GORI × SafaRI
TITLEJA:GORI × GORI × SafaRI
SUBTITLE:--Nobuyoshi Kobayashi(BNSI)
SUBTITLEJA:小林伸嘉(BNSI)
BPM:272
WAVE:GORI x GORI x SafaRI.ogg
OFFSET:-1.94
DEMOSTART:70.745
COURSE:Edit
LEVEL:10
BALLOON:16,2
SCOREINIT:950
SCOREDIFF:0
#START
#MEASURE 1/4
#SCROLL 0.5
,
,
,
,
,
,
,
,
,
,
,
,
,
,
#MEASURE 2/4
0000
#SCROLL 0.75
2222,
#MEASURE 8/4
202020202020200100200200202020200020000020000000,
#MEASURE 1/4
2,
#SCROLL 0.5
,
,
,
,
,
,
,
,
,
,
,
,
,
,
,
#MEASURE 8/4
#SCROLL 0.75
200020002000200000100000200200200200200020002000200000100000200020002000200000002000000020000000,
#MEASURE 4/4
100000000000000202000000000000100000000000000000,
#MEASURE 1/4
#SCROLL 0.5
,
,
,
,
,
,
,
,
#MEASURE 8/4
#SCROLL 0.75
200200200200200020002000200020002000200000100000200000200000200020002000200000000000200000000000,
#MEASURE 1/4
020,
#SCROLL 0.5
,
,
,
,
,
,
,
,
,
#MEASURE 2/4
0000
#SCROLL 0.75
2222,
#MEASURE 8/4
202020202020200100200200202020200100202020200020,
002000100000220000200010002000100000220000000000,
#MEASURE 4/4
#GOGOSTART
#SCROLL 1
10110110,
10110110,
10110110,
1020100011102020,
10110110,
1010111010002020,
1010221010001010,
1020100010202220,
10110110,
11011022,
10110110,
1020100011102020,
10110110,
1010111010002020,
1010221010001010,
1020100010201120,
10110112,
10110110,
10110112,
1020100011102020,
10110112,
1000111020201000,
1000221010001010,
2220101022201010,
1000101010201120,
1000101011202020,
1000101010201120,
1020100022201010,
1000101011201020,
1022101022221000,
#MEASURE 6/4
#GOGOEND
#SCROLL 0.5
101010100100000000100100100000101010,
100020202000202220002000,
202010102000202210002020,
100000200200100000200200100000202020,
101010100100000000100100100000101010,
200020002000100000100000000000000000200000200200200000000000200000000000,
202020202000202220002020,
200000100100100000000000200000202020,
101010100100000000100100100000101010,
200000100000100000100000200100100000100000100000200000100000100010001000,
100020201010222010001010,
201010102000101110002020,
100000200100100200100100200100202020,
101010100100000000100000100010101010,
100100200000100000100100200000101010,
200010102011200020002020,
#MEASURE 4/4
#GOGOSTART
#SCROLL 1
10110110,
5,
,
08011022,
1000101011101010,
1120112010002020,
7,
0008,
1110101000101000,
11121112,
1110101000101000,
11221122,
202020200200000200202020,
200200222200,
1110101000101000,
11121112,
1110101000101000,
11221122,
1110202011102020,
111100111100,
1110101000101000,
21112111,
202020100100000100202020,
100100222100,
202020100100000100202020,
100100222100,
1110101000101000,
11121112,
1110201010221010,
1011201010102220,
1110102010201020,
1110202011117000,
#GOGOEND
#BPMCHANGE 150
#SCROLL 1
8,
#BPMCHANGE 152
0,
#BPMCHANGE 154
0,
#BPMCHANGE 156
0,
#BPMCHANGE 157
10202010222010101000222010001020,
#BPMCHANGE 158
00000200000000000000000010102220,
#BPMCHANGE 160
10001010222022201000222010002000,
#BPMCHANGE 162
1000000000001110,
#BPMCHANGE 164
100000200100000000200200000000100000100000002000,
#BPMCHANGE 165
000000000000000010002000100000100000000000200000000000000000000000000000100000100000200200200000,
#BPMCHANGE 168
1011102220111022,
#BPMCHANGE 169
200000202020100000200200200000200200200000200200,
#BPMCHANGE 170
100000000000100000202020100200000000000100200000,
#BPMCHANGE 173
0100001120001212,
#BPMCHANGE 174
1222101110111010,
#BPMCHANGE 175
1222022220202022,
#GOGOSTART
#BPMCHANGE 178
1001101010110110,
#BPMCHANGE 179
1011101010112112,
#BPMCHANGE 180
1001101010110110,
#BPMCHANGE 181
100000101010100000100000100100200100100200100000,
#BPMCHANGE 183
1001101010110110,
#BPMCHANGE 184
1011101010112112,
#BPMCHANGE 186
1001101010110110,
#BPMCHANGE 188
1222022040202220,
#BPMCHANGE 190
1001201121012011,
1001201121012101,
100000200100200000100100200100000100200000101010,
100200000200100100200200100200200100200200202020,
1001201121012011,
200100100100200000100100202020100100200100100100,
2011221120112211,
200200100100200200200100100200100100202020100000,
100000001000100000100000100100000100100000000000,
100000100000100010001000100000200200100200000200,
100100100100100100100100101010101010101010101010,
#GOGOEND
#SCROLL 2
4,
#SCROLL 1
,
,
,
#END
COURSE:Oni
LEVEL:8
BALLOON:20,11
SCOREINIT:1600
SCOREDIFF:0
#START
#MEASURE 1/4
#SCROLL 0.5
,
,
,
,
,
,
,
,
,
,
,
,
,
,
#MEASURE 2/4
0
#SCROLL 0.75
5,
#MEASURE 8/4
00,
#MEASURE 1/4
000008000000,
#SCROLL 0.5
,
,
,
,
,
,
,
,
,
,
,
,
,
,
,
#MEASURE 8/4
#SCROLL 0.75
50,
#MEASURE 4/4
000000000000000008000000000000100000000000000000,
#MEASURE 1/4
#SCROLL 0.5
,
,
,
,
,
,
,
,
#MEASURE 8/4
#SCROLL 0.75
50,
#MEASURE 1/4
000008000000,
#SCROLL 0.5
,
,
,
,
,
,
,
,
,
#MEASURE 2/4
0
#SCROLL 0.75
5,
#MEASURE 8/4
00,
000000000000000000000000000000000000000000000000000000000000000000000008000000000000000000000000,
#GOGOSTART
#SCROLL 0.5
100010002020100010002020,
100010002020101000101000,
100010002020100010002020,
102010201020101000101000,
100020002020100020002020,
100020002020101000101000,
100020002020100020200020,
100020002020101000101000,
100010002020500000000000,
000000000000000000000000000000000000000000000000000000000000000000000000000008000000000000000000,
100010002000100010205000,
000000000000000000000000000000000000000000000000000000000000000000000000000000000008000000000000,
100020002020100020002020,
100020002020101000101000,
100020002020100020002000,
#MEASURE 6/4
#GOGOEND
111100111010,
102000222020,
201022201020,
323230,
111100111010,
221100202020,
222220111022,
111020,
111100111010,
211121112111,
102010221010,
201120111020,
101110102010,
100100100100000000100000100010001000,
341141,
411410,
#MEASURE 8/4
#GOGOSTART
100010001020500000000000,
000000000000000000000000000000000000000000000000000000000000000000000000000008000000000000000000,
100010201000100010201000,
70000008,
1011011011101110,
1011011011201120,
2022022020202220,
1011011011101110,
2022022020202220,
1011011011101110,
1011011021102110,
2011012010102110,
2011012010102110,
1011011011101110,
1011011011211121,
1212121212103000,
#MEASURE 4/4
#GOGOEND
#BPMCHANGE 150
#SCROLL 1
0,
#BPMCHANGE 152
0,
#BPMCHANGE 154
0,
#BPMCHANGE 156
0,
#BPMCHANGE 157
1020111010221010,
#BPMCHANGE 158
0,
#BPMCHANGE 160
1011222210221020,
#BPMCHANGE 162
1,
#BPMCHANGE 164
100000200100000000200200000000100000100000002000,
#BPMCHANGE 165
000000001000100100000200000000000000000000000000,
#BPMCHANGE 168
1011100220011000,
#BPMCHANGE 169
2011101120111110,
#BPMCHANGE 170
1000100012000110,
#BPMCHANGE 173
000100000000000000100100500000000000000008000000,
#BPMCHANGE 174
1011101120111011,
#BPMCHANGE 175
7008,
#GOGOSTART
#BPMCHANGE 178
1001001010011010,
#BPMCHANGE 179
1011101010112220,
#BPMCHANGE 180
1001001010011010,
#BPMCHANGE 181
1011101011102220,
#BPMCHANGE 183
1001001010011010,
#BPMCHANGE 184
1011101010112220,
#BPMCHANGE 186
1001001010011010,
#BPMCHANGE 188
1001011040222000,
#BPMCHANGE 190
1001021010011010,
1011201110112010,
1001021010011010,
1011201110112220,
1001021010011010,
1011201120112011,
2011211120112111,
2011221122112210,
300000001000100000100000100100000000100000000000,
100100101010300000400000,
500000000000000000000000000000000000000008000000,
#GOGOEND
#SCROLL 2
3,
#SCROLL 1
,
,
,
#END
COURSE:Hard
LEVEL:7
BALLOON:16,8
SCOREINIT:2490
SCOREDIFF:0
#START
#MEASURE 1/4
#SCROLL 0.5
,
,
,
,
,
,
,
,
,
,
,
,
,
,
#MEASURE 2/4
0
#SCROLL 0.75
5,
#MEASURE 8/4
00,
#MEASURE 1/4
000008000000,
#SCROLL 0.5
,
,
,
,
,
,
,
,
,
,
,
,
,
,
,
#MEASURE 8/4
#SCROLL 0.75
50,
#MEASURE 4/4
000000000000000008000000000000000000000000000000,
#MEASURE 1/4
#SCROLL 0.5
,
,
,
,
,
,
,
,
#MEASURE 8/4
#SCROLL 0.75
50,
#MEASURE 1/4
000008000000,
#SCROLL 0.5
,
,
,
,
,
,
,
,
,
#MEASURE 2/4
0
#SCROLL 0.75
5,
#MEASURE 8/4
00,
000000000000000000000000000000000000000000000000000000000000000000000008000000000000000000000000,
#SCROLL 0.5
#GOGOSTART
112112,
101020110110,
112112,
101020110110,
122122,
102020110110,
102020100202,
102020110110,
112500,
000000000000000000000000000000000000008000000000,
112115,
000000000000000000000000000000000000000008000000,
122122,
102020110110,
122122,
#GOGOEND
#MEASURE 6/4
111100101010,
120220,
210210,
323230,
111100101010,
222200002000,
221,
211020,
111100101010,
201110111011,
101210,
212112,
101120,
100100100100000000100000100010001000,
340141,
401400,
#MEASURE 8/4
#GOGOSTART
112500,
000000000000000000000000000000000000008000000000,
112112,
70000008,
1001001011101000,
1001001011101000,
2002002022202000,
1001001011101000,
2002002020202220,
1001001011101000,
1001001022202000,
1001001020202220,
1001001022202000,
1001001011101000,
1001001011101110,
1111101111103000,
#GOGOEND
#MEASURE 4/4
#BPMCHANGE 150
#SCROLL 1
,
#BPMCHANGE 152
,
#BPMCHANGE 154
,
#BPMCHANGE 156
,
#BPMCHANGE 157
1,
#BPMCHANGE 158
,
#BPMCHANGE 160
1,
#BPMCHANGE 162
,
#BPMCHANGE 164
1,
#BPMCHANGE 165
,
#BPMCHANGE 168
11,
#BPMCHANGE 169
1000100010111000,
#BPMCHANGE 170
11,
#BPMCHANGE 173
000100000000000000500000000000000000000008000000,
#BPMCHANGE 174
1000100010111010,
#BPMCHANGE 175
7008,
#GOGOSTART
#BPMCHANGE 178
1001001010001000,
#BPMCHANGE 179
10111110,
#BPMCHANGE 180
1001001010001000,
#BPMCHANGE 181
1001001010111000,
#BPMCHANGE 183
1001001010001000,
#BPMCHANGE 184
10111110,
#BPMCHANGE 186
1001001010001000,
#BPMCHANGE 188
100000000000100000000000600000000008000000000000,
#BPMCHANGE 190
1001002020001010,
10112210,
1001002020001010,
1001001020102000,
1001002020001010,
10112211,
21212121,
2011101110111000,
30113030,
11303040,
500000000000000000000000000000000000000008000000,
#GOGOEND
3,
,
,
,
#END
COURSE:Normal
LEVEL:5
BALLOON:9,6
SCOREINIT:3990
SCOREDIFF:0
#START
#MEASURE 1/4
#SCROLL 0.5
,
,
,
,
,
,
,
,
,
,
,
,
,
,
#MEASURE 2/4
0
#SCROLL 0.75
5,
#MEASURE 8/4
00,
#MEASURE 1/4
000008000000,
#SCROLL 0.5
,
,
,
,
,
,
,
,
,
,
,
,
,
,
,
#MEASURE 8/4
#SCROLL 0.75
50,
#MEASURE 4/4
000000000000000008000000000000000000000000000000,
#MEASURE 1/4
#SCROLL 0.5
,
,
,
,
,
,
,
,
#MEASURE 8/4
#SCROLL 0.75
50,
#MEASURE 1/4
000008000000,
#SCROLL 0.5
,
,
,
,
,
,
,
,
,
#MEASURE 2/4
0
#SCROLL 0.75
5,
#MEASURE 8/4
00,
000000000000000000000000000000000000000000000000000000000000000000000008000000000000000000000000,
#GOGOSTART
#SCROLL 0.5
100010000000100010000000,
100010000000101000101000,
100010000000100010000000,
100010000000101000101000,
200020000000200020000000,
200020000000202000202000,
200020000000200020000000,
200020000000202000202000,
100010000000500000000000,
000000000000000000000000000000000000000000000000000000000000000000000000000008000000000000000000,
100010000000100010005000,
000000000000000000000000000000000000000000000000000000000000000000000000000000000008000000000000,
200020000000200020000000,
200020000000202000202000,
200020000000200020000000,
#MEASURE 6/4
#GOGOEND
100110,
1,
200210,
303030,
100110,
300200,
202020,
201020,
100110,
101010,
100110,
202010,
102020,
100110,
300400,
400400,
#MEASURE 8/4
#GOGOSTART
100010000000500000000000,
000000000000000000000000000000000000000000000000000000000000000000000000000008000000000000000000,
100010000000100010000000,
70000008,
1001000010101000,
1001000010101000,
2002000020202000,
1001000010101000,
2002000020202000,
1001000010101000,
1001000020202000,
1001000020202000,
1001000020202000,
1001000010101000,
1001000010101000,
11111130,
#MEASURE 4/4
#GOGOEND
#BPMCHANGE 150
#SCROLL 1
0,
#BPMCHANGE 152
0,
#BPMCHANGE 154
0,
#BPMCHANGE 156
0,
#BPMCHANGE 157
1,
#BPMCHANGE 158
0,
#BPMCHANGE 160
1,
#BPMCHANGE 162
0,
#BPMCHANGE 164
1,
#BPMCHANGE 165
0,
#BPMCHANGE 168
1,
#BPMCHANGE 169
0,
#BPMCHANGE 170
1,
#BPMCHANGE 173
0,
#BPMCHANGE 174
1010,
#BPMCHANGE 175
7008,
#GOGOSTART
#BPMCHANGE 178
10011000,
#BPMCHANGE 179
10011010,
#BPMCHANGE 180
10011000,
#BPMCHANGE 181
1001001010001000,
#BPMCHANGE 183
10011000,
#BPMCHANGE 184
10011010,
#BPMCHANGE 186
10011000,
#BPMCHANGE 188
100000000000100000000000600000000008000000000000,
#BPMCHANGE 190
10022000,
10222010,
10022000,
1001002020002000,
10022000,
1222,
10111011,
10111110,
3030,
3334,
500000000000000000000000000000000000000008000000,
#GOGOEND
3,
,
,
,
#END
COURSE:Easy
LEVEL:4
BALLOON:7,4
SCOREINIT:6140
SCOREDIFF:0
#START
#MEASURE 1/4
#SCROLL 0.5
,
,
,
,
,
,
,
,
,
,
,
,
,
,
#MEASURE 2/4
0
#SCROLL 0.75
5,
#MEASURE 8/4
00,
#MEASURE 1/4
000008000000,
#SCROLL 0.5
,
,
,
,
,
,
,
,
,
,
,
,
,
,
,
#MEASURE 8/4
#SCROLL 0.75
50,
#MEASURE 4/4
000000000000000008000000000000000000000000000000,
#MEASURE 1/4
#SCROLL 0.5
,
,
,
,
,
,
,
,
#MEASURE 8/4
#SCROLL 0.75
50,
#MEASURE 1/4
000008000000,
#SCROLL 0.5
,
,
,
,
,
,
,
,
,
#MEASURE 2/4
0
#SCROLL 0.75
5,
#MEASURE 8/4
00,
000000000000000000000000000000000000000000000000000000000000000000000008000000000000000000000000,
#GOGOSTART
#SCROLL 0.5
11,
10001010,
11,
10001010,
22,
20002020,
22,
20002020,
15,
000000000000000000000000000000000000000000000000000000000000000000000000000008000000000000000000,
100000000000100050000000,
000000000000000000000000000000000000000000000000000000000000000000000000000000000008000000000000,
22,
20002020,
22,
#MEASURE 6/4
#GOGOEND
100110,
1,
200200,
303030,
100110,
3,
2,
2,
100110,
101010,
100100,
200200,
100200,
100110,
300400,
400400,
#MEASURE 8/4
#GOGOSTART
15,
000000000000000000000000000000000000000000000000000000000000000000000000000008000000000000000000,
11,
70000008,
10001010,
10001010,
20002020,
10001010,
20002020,
10001010,
10002020,
10002020,
10002020,
10001110,
10001110,
10111030,
#MEASURE 4/4
#GOGOEND
#BPMCHANGE 150
#SCROLL 1
0,
#BPMCHANGE 152
0,
#BPMCHANGE 154
0,
#BPMCHANGE 156
0,
#BPMCHANGE 157
1,
#BPMCHANGE 158
0,
#BPMCHANGE 160
1,
#BPMCHANGE 162
0,
#BPMCHANGE 164
1,
#BPMCHANGE 165
0,
#BPMCHANGE 168
1,
#BPMCHANGE 169
0,
#BPMCHANGE 170
1,
#BPMCHANGE 173
0,
#BPMCHANGE 174
1010,
#BPMCHANGE 175
7008,
#GOGOSTART
#BPMCHANGE 178
1010,
#BPMCHANGE 179
1011,
#BPMCHANGE 180
1010,
#BPMCHANGE 181
1011,
#BPMCHANGE 183
1010,
#BPMCHANGE 184
1011,
#BPMCHANGE 186
1010,
#BPMCHANGE 188
1,
#BPMCHANGE 190
1020,
1222,
1020,
1022,
1020,
1222,
1020,
1111,
3030,
3330,
500000000000000000000000000000000000000008000000,
#GOGOEND
3,
,
,
,
#END