Other Fixes: 01 Pop Nai Mono Nedari (Fixed BPM) 02 Anime Anataboshi (Trimmed Chart, Fixed Normal 46-50 to match with 3DS2/AC12, Normal(DP) 36(2P), Easy 38, Easy(DP) 33(1P&2P)) Odoru Ponpokorin (Fixed Filename typos, combined Old and New versions into single folder) Nameko no Uta (Moved from "04 Children and Folk" folder to "02 Anime" folder) Netsujou no Spectrum (Moved from "01 Pop" folder to "02 Anime" folder) 05 Variety PERFECT HUMAN (Moved from "01 Pop" folder to "05 Variety" folder)
349 lines
4.2 KiB
Plaintext
349 lines
4.2 KiB
Plaintext
//TJADB Project
|
|
TITLE:Issho ni Asobo♪
|
|
TITLEJA:いっしょにあそぼ♪
|
|
SUBTITLE:--Torine feat. Yuka Uchiya
|
|
SUBTITLEJA:
|
|
BPM:125
|
|
WAVE:Issho ni Asobo.ogg
|
|
OFFSET:-2.071
|
|
DEMOSTART:80.795
|
|
|
|
COURSE:Oni
|
|
LEVEL:8
|
|
BALLOON:15,17,17,17
|
|
SCOREINIT:660
|
|
SCOREDIFF:170
|
|
|
|
#START
|
|
0000000011112222,
|
|
11112222,
|
|
1010101120221022,
|
|
7008,
|
|
3003003040000000,
|
|
|
|
#GOGOSTART
|
|
1011202212010210,
|
|
1011201121020120,
|
|
3004000030040000,
|
|
600000000000000000000000000000000008000000000000,
|
|
|
|
1011202212010210,
|
|
1011201121020120,
|
|
1011202211221070,
|
|
0008,
|
|
#GOGOEND
|
|
|
|
44,
|
|
45,
|
|
000000000000000000000000000000000000000008000000,
|
|
3003000030030000,
|
|
3003000040000000,
|
|
|
|
1020102210201022,
|
|
1011102211221022,
|
|
1020102210201022,
|
|
1011102212121022,
|
|
|
|
1020102210201022,
|
|
1011102211221022,
|
|
1000100000001022,
|
|
100000000000000000100000500000000000000008000000,
|
|
|
|
2000200000002022,
|
|
1111222211112222,
|
|
|
|
1011202010112020,
|
|
1011202211112222,
|
|
1011202010112020,
|
|
1011202211112222,
|
|
|
|
1011202010112020,
|
|
1011202211111020,
|
|
0010102000101020,
|
|
0010201122112011,
|
|
23,
|
|
|
|
#GOGOSTART
|
|
1011202212010210,
|
|
1011201121020120,
|
|
3004000030040000,
|
|
600000000000000000000000000000000008000000000000,
|
|
|
|
1011202212010210,
|
|
1011201121020120,
|
|
1011202211221070,
|
|
0008,
|
|
|
|
1011202212010210,
|
|
1011201121020120,
|
|
1022121212221022,
|
|
1110221211201120,
|
|
|
|
4011202212010210,
|
|
1011201121020120,
|
|
1011202211221070,
|
|
0008,
|
|
#GOGOEND
|
|
|
|
21112111,
|
|
2010102211111111,
|
|
1220102211212022,
|
|
11000000,
|
|
0,
|
|
#END
|
|
|
|
|
|
COURSE:Hard
|
|
LEVEL:7
|
|
BALLOON:13,15,15,15
|
|
SCOREINIT:660
|
|
SCOREDIFF:175
|
|
|
|
#START
|
|
04,
|
|
11102220,
|
|
11112222,
|
|
7008,
|
|
3003003040000000,
|
|
|
|
#GOGOSTART
|
|
1011101011010110,
|
|
1011101022020220,
|
|
3004000030040000,
|
|
600000000000000000000000000000000008000000000000,
|
|
|
|
1011101011010110,
|
|
1011101022020220,
|
|
1000201010020070,
|
|
0008,
|
|
#GOGOEND
|
|
|
|
44,
|
|
45,
|
|
000000000000000000000000000000000000000008000000,
|
|
3003000030030000,
|
|
3003000040000000,
|
|
|
|
12121210,
|
|
1010100011111000,
|
|
12121210,
|
|
1011100022222000,
|
|
|
|
12121210,
|
|
1010100011111000,
|
|
3000300000001011,
|
|
100000000000000000100000500000000000000008000000,
|
|
|
|
20200022,
|
|
12121122,
|
|
|
|
1022202010202000,
|
|
1022202010222000,
|
|
1022202010202000,
|
|
1022202010222000,
|
|
|
|
1022202010202000,
|
|
1022202220101020,
|
|
01120112,
|
|
0010202220222022,
|
|
23,
|
|
|
|
#GOGOSTART
|
|
1011101011010110,
|
|
1011101022020220,
|
|
3004000030040000,
|
|
600000000000000000000000000000000008000000000000,
|
|
|
|
1011101011010110,
|
|
1011101022020220,
|
|
1011101011111070,
|
|
0008,
|
|
|
|
1011101011010110,
|
|
1011101022020220,
|
|
1011101020222020,
|
|
1110222011102220,
|
|
|
|
3011101011010110,
|
|
1011101022020220,
|
|
1011101022022070,
|
|
0008,
|
|
#GOGOEND
|
|
|
|
21112111,
|
|
21114000,
|
|
2220202222202020,
|
|
33000000,
|
|
0,
|
|
#END
|
|
|
|
|
|
COURSE:Normal
|
|
LEVEL:5
|
|
BALLOON:8,10,8,10,10
|
|
SCOREINIT:980
|
|
SCOREDIFF:360
|
|
|
|
#START
|
|
0,
|
|
1111,
|
|
11101110,
|
|
7008,
|
|
3003003040000000,
|
|
|
|
#GOGOSTART
|
|
1001001000000000,
|
|
1001001000000000,
|
|
3004000030040000,
|
|
600000000000000000000000000000000008000000000000,
|
|
|
|
2002002000000000,
|
|
2002002000000000,
|
|
1000101010010070,
|
|
0008,
|
|
#GOGOEND
|
|
|
|
44,
|
|
45,
|
|
000000000000000000000000000000000000000008000000,
|
|
3003000030030000,
|
|
3003000040000000,
|
|
|
|
1111,
|
|
11100000,
|
|
1111,
|
|
22200000,
|
|
|
|
1111,
|
|
11100000,
|
|
30300011,
|
|
100000000000000000500000000000000000000008000000,
|
|
|
|
2200,
|
|
70000008,
|
|
|
|
1202,
|
|
1202,
|
|
1202,
|
|
1202,
|
|
|
|
1205,
|
|
000000000000000008000000000000000000000000400000,
|
|
00040004,
|
|
0222,
|
|
43,
|
|
|
|
#GOGOSTART
|
|
1001001000000000,
|
|
1001001000000000,
|
|
3004000030040000,
|
|
600000000000000000000000000000000008000000000000,
|
|
|
|
2002002000000000,
|
|
2002002000000000,
|
|
1000101010010070,
|
|
0008,
|
|
|
|
1001001000000000,
|
|
1001001000000000,
|
|
3004000030040000,
|
|
600000000000000000000000000000000008000000000000,
|
|
|
|
2002002000000000,
|
|
2002002000000000,
|
|
1000101010010070,
|
|
0008,
|
|
#GOGOEND
|
|
|
|
44,
|
|
44,
|
|
22202220,
|
|
33000000,
|
|
0,
|
|
#END
|
|
|
|
|
|
COURSE:Easy
|
|
LEVEL:3
|
|
BALLOON:7,8,7,11,8,8
|
|
SCOREINIT:820
|
|
SCOREDIFF:363
|
|
|
|
#START
|
|
0,
|
|
11,
|
|
1111,
|
|
7008,
|
|
34,
|
|
|
|
#GOGOSTART
|
|
1210,
|
|
1210,
|
|
34,
|
|
600000000000000000000000000008000000000000000000,
|
|
|
|
1210,
|
|
1210,
|
|
10101007,
|
|
0008,
|
|
#GOGOEND
|
|
|
|
44,
|
|
45,
|
|
000000000000000000000000000008000000000000000000,
|
|
33,
|
|
34,
|
|
|
|
1110,
|
|
1100,
|
|
1110,
|
|
2200,
|
|
|
|
1110,
|
|
1100,
|
|
3305,
|
|
000000000000000000000000000008000000000000000000,
|
|
|
|
2200,
|
|
7008,
|
|
|
|
0202,
|
|
0202,
|
|
0202,
|
|
0202,
|
|
|
|
0205,
|
|
000000000000000008000000000000000000000000400000,
|
|
00040009,
|
|
0009,
|
|
8,
|
|
|
|
#GOGOSTART
|
|
1210,
|
|
1210,
|
|
34,
|
|
600000000000000000000000000008000000000000000000,
|
|
|
|
1210,
|
|
1210,
|
|
10101007,
|
|
0008,
|
|
|
|
1212,
|
|
1210,
|
|
34,
|
|
600000000000000000000000000008000000000000000000,
|
|
|
|
1212,
|
|
1210,
|
|
10101007,
|
|
0008,
|
|
#GOGOEND
|
|
|
|
44,
|
|
45,
|
|
000000000000000000000000000008000000000000000000,
|
|
33000000,
|
|
0,
|
|
#END
|