Files

369 lines
13 KiB
Plaintext

//TJADB Project
TITLE:Popcorn★Parade
TITLEJA:ポップコーン★パレード
SUBTITLE:--Yuri Misumi feat. Miki Narahashi
BPM:128
WAVE:Popcorn Parade.ogg
OFFSET:-1.980
DEMOSTART:98.998
COURSE:Oni
LEVEL:8
SCOREINIT:550
SCOREDIFF:150
#START
#GOGOSTART
3000000010111020,
1011201000201000,
1020202200300000,
1020202200300000,
#GOGOEND
100000200100200000000000200000100200000100200000,
100000200200100000000000200000200100000200100000,
100000200100200000000000200000100200000100200000,
300000300000000000000000000200200000200000200000,
100000000000200000000000100000100200000000200200,
100000000000200000000000100000200100000000200100,
100000000000200000000000100000100200000000200200,
100000000000100000000300000200200000200000200000,
100000100000200000100200100000000200000000100200,
100000100000200000200000100100000200000000100200,
100000100000200000200000100200100200000000100200,
100000000000400000000300000000200000200000200000,
100000000100200000100000000200200000100000200200,
100000000100200000100000000100100000100000200100,
100000000100200000100000000200200000100000200200,
100000000100200000100000000100200200200000200000,
100000000100200000100000000200200000100000200200,
100000000100200000100000000000100200200200100000,
000000100200200200100000000000100200200200100000,
100000100000100100000300000000000400000000000000,
000000000000000000000000000000000000000000000000,
#GOGOSTART
3000000010111020,
1011201000201000,
1010220100102012,
1020102202202000,
3000000010111020,
1011201000201000,
1010220100102012,
1020112202204000,
#GOGOEND
100000200000200000200200100000100100000000200100,
100000200000200000200200100000100100000000200100,
100000200000200000200200100100200200100200200200,
100000200000200000000300000000000000000000000000,
100000200000200000200200200000000200000000200000,
100000200000200000200200100000000100000000100000,
100000200000200000200200200000000200000000200000,
000000100000100000100100000000000000000000000000,
000000000000000000000000000000000000000000000000,
100000200200200000000000200000000200000000100000,
100000200200200000000000200000200200000000100000,
100000200200200000000000200000000200000000100000,
100000000000400000000300000000000000000000000000,
100000200200200000100100100000200200200000200000,
100000200000100000200000100000200000100000000000,
100000200200200000100100100000200200200000200000,
100000200000100000200000100000200000100000000000,
200000200000200200000200000200000200200000200000,
100000100000100100000300000000000000000000000000,
#GOGOSTART
3000000010111020,
1011201000201000,
1010220100102012,
1020102202202000,
3000000010111020,
1011201000201000,
1010220100102012,
1020112202204000,
#GOGOEND
100000200000200200000100000200100200200000200000,
100000000000200000000300000200200200200000000000,
100000200000200200000100000200100200200000200000,
100000000000200000000300000100100100200000000000,
100000200000200200000100000200100200200000200000,
100000100000200000000300000200200200200000000000,
100000000000000000000000200000000000200000000500,
000000000000000000000000000008000000000000000000,
#END
COURSE:Hard
LEVEL:6
SCOREINIT:690
SCOREDIFF:180
#START
#GOGOSTART
300000000000000000000000100000000000100000000000,
100000100100100000100000000000100000100000000000,
100000200000200000000200000000300000000000000000,
100000200000200000000200000000300000000000000000,
#GOGOEND
100000200000200000000000200000000200000000200000,
100000100000100000000000200000000000200000000000,
100000200000200000000000200000000200000000200000,
500000000000000000000800000000000000000000000000,
100000000000200000000000100000000200000000100000,
100000000000200000000000100000000200000000100000,
100000000000200000000000100000000200000000100000,
100000000000100000000300000000000000000000000000,
100000000000200000000000100000000200000000100000,
100000000000200000000000100100000200000000100000,
100000000000200000000000100000000200000000100000,
100000000000100000000300000000000000000000000000,
100000000100200000100000000000000000100000000000,
100000000100200000200000000000000000000000000000,
100000000100200000100000000000000000100000000000,
100000000100200000200000000000200200200000000000,
100000000100200000100000000000000000100000000000,
100000000100200000100000000000100000200000100000,
000000100000200000100000000000100000200000100000,
100000100000100100000300000000000400000000000000,
000000000000000000000000000000000000000000000000,
#GOGOSTART
300000000000000000000000100000000000100000000000,
100000100100100000100000000000100000100000000000,
100000100000200200000100000000100000200000000000,
100000200000100000200000000000000000000000000000,
300000000000000000000000100000000000100000000000,
100000100100100000100000000000100000100000000000,
100000100000200200000100000000100000200000000000,
500000000000000000000800000000000000000000000000,
#GOGOEND
100000200000200000200000100000100100000000000000,
100000200000200000200000100000100100000000000000,
100000200000200000200000100000100100000000000000,
100000200000200000000300000000000000000000000000,
100000200000200000000000200000000200000000200000,
100000200000200000000000100000000100000000100000,
100000200000200000000000200000000200000000200000,
000000100000100000100100000000000000000000000000,
000000000000000000000000000000000000000000000000,
100000000000200000000000200000000200000000000000,
100000000000200000000000200000200200000000000000,
100000000000200000000000200000000200000000000000,
300000000000400000000300000000000000000000000000,
100000200200200000000000100000200200200000000000,
100000200000100000200000100000200000100000000000,
100000200200200000000000100000200200200000000000,
100000200000100000200000100000200000100000000000,
500000000000000000000000000000000000000800000000,
000000000000000000000000000000000000000000000000,
#GOGOSTART
300000000000000000000000100000000000100000000000,
100000100100100000100000000000100000100000000000,
100000100000200200000100000000100000200000000000,
100000200000100000200000000000000000000000000000,
300000000000000000000000100000000000100000000000,
100000100100100000100000000000100000100000000000,
100000100000200200000100000000100000200000000000,
500000000000000000000800000000000000000000000000,
#GOGOEND
100000200000200200000100000000100000200000200000,
100000000000200000000300000000000000000000000000,
100000200000200200000100000000100000200000200000,
100000000000200000000300000000000000000000000000,
100000200000200200000100000000100000200000200000,
100000100000200000000300000000000000000000000000,
100000000000000000000000200000000000200000000500,
000000000000000000000000000000800000000000000000,
#END
COURSE:Normal
LEVEL:4
BALLOON:20
SCOREINIT:900
SCOREDIFF:260
#START
#GOGOSTART
300000000000000000000000100000000000100000000000,
100000000000100000100000000000100000100000000000,
000000000000000000000000000000000000000000000000,
000000000000000000000000000000000000000000000000,
#GOGOEND
100000000000100000000000200000000000200000000000,
100000000000100000000000000000000000000000000000,
100000000000100000000000200000000000200000000000,
500000000000000000000000800000000000000000000000,
100000000000000000000000100000000000000000000000,
100000000000100000000000100000000000000000000000,
100000000000000000000000100000000000000000000000,
300000000000300000000000300000000000000000000000,
100000000000000000000000100000000000000000000000,
100000000000100000000000100000000000000000000000,
100000000000000000000000100000000000000000000000,
300000000000300000000000300000000000000000000000,
200000000000000000000000200000000000200000000000,
500000000000000000800000000000000000000000000000,
200000000000000000000000200000000000200000000000,
500000000000000000800000000000000000000000000000,
100000000000000000000000100000000000100000000000,
200000000000200000000000000000000000000000000000,
100000000000100000000000200000000000200000000000,
300000000000300000000000300000000000000000000000,
000000000000000000000000000000000000000000000000,
#GOGOSTART
300000000000000000000000100000000000100000000000,
100000000000100000100000000000100000100000000000,
100000000000100000000000200000000000200000000000,
500000000000000000000000800000000000000000000000,
300000000000000000000000100000000000100000000000,
100000000000100000100000000000100000100000000000,
100000000000100000000000200000000000200000000000,
500000000000000000000000800000000000000000000000,
#GOGOEND
300000000000000000000000000000000000000000000000,
100000000000100000000000200000000000000000000000,
100000000000100000000000200000000000000000000000,
100000000000100000000000200000000000000000000000,
100000000000000000000000100000000000100000000000,
100000000000000000000000100000000000100000000000,
100000000000000000000000100000000000100000000000,
100000000000000000000000300000000000000000000000,
000000000000000000000000000000000000000000000000,
200000000000200000000000200000000000000000000000,
200000000000000000000000200000000000000000000000,
200000000000200000000000200000000000000000000000,
400000000000000000000000000000000000000000000000,
100000000000000000000000100000000000000000000000,
100000000000100000000000100000000000100000000000,
100000000000000000000000100000000000000000000000,
100000000000100000000000100000000000100000000000,
500000000000000000000000000000000000800000000000,
000000000000000000000000000000000000000000000000,
#GOGOSTART
300000000000000000000000100000000000100000000000,
100000000000100000100000000000100000100000000000,
100000000000100000000000200000000000200000000000,
500000000000000000000000800000000000000000000000,
300000000000000000000000100000000000100000000000,
100000000000100000100000000000100000100000000000,
100000000000100000000000200000000000200000000000,
500000000000000000000000800000000000000000000000,
#GOGOEND
100000000000000000000000100000000000000000000000,
300000000000300000000000300000000000000000000000,
100000000000000000000000100000000000000000000000,
300000000000300000000000300000000000000000000000,
200000000000000000000000200000000000000000000000,
400000000000400000000000400000000000000000000000,
700000000000000000000000000000000000000000000000,
000000000000000000000000000000000000000000000000,
000000000000000000800000000000000000000000000000,
#END
COURSE:Easy
LEVEL:4
BALLOON:10
SCOREINIT:690
SCOREDIFF:200
#START
#GOGOSTART
300000000000000000000000100000000000000000000000,
100000000000100000100000000000100000100000000000,
000000000000000000000000000000000000000000000000,
000000000000000000000000000000000000000000000000,
#GOGOEND
100000000000100000000000000000000000000000000000,
100000000000100000000000000000000000000000000000,
100000000000100000000000000000000000000000000000,
500000000000000000800000000000000000000000000000,
100000000000000000000000100000000000000000000000,
100000000000100000000000100000000000000000000000,
100000000000000000000000100000000000000000000000,
300000000000300000000000300000000000000000000000,
100000000000000000000000100000000000000000000000,
100000000000100000000000100000000000000000000000,
100000000000000000000000100000000000000000000000,
300000000000300000000000300000000000000000000000,
100000000000000000000000100000000000100000000000,
500000000000800000000000000000000000000000000000,
100000000000000000000000100000000000100000000000,
500000000000800000000000000000000000000000000000,
100000000000000000000000100000000000100000000000,
500000000000800000000000000000000000000000000000,
100000000000000000000000100000000000000000000000,
300000000000300000000000300000000000000000000000,
000000000000000000000000000000000000000000000000,
#GOGOSTART
300000000000000000000000100000000000000000000000,
100000000000100000100000000000100000100000000000,
100000000000000000000000100000000000000000000000,
500000000000000000800000000000000000000000000000,
300000000000000000000000100000000000000000000000,
100000000000100000100000000000100000100000000000,
100000000000000000000000100000000000000000000000,
500000000000000000800000000000000000000000000000,
#GOGOEND
300000000000000000000000000000000000000000000000,
200000000000000000000000200000000000000000000000,
200000000000000000000000200000000000000000000000,
200000000000000000000000200000000000000000000000,
100000000000000000000000100000000000100000000000,
100000000000000000000000100000000000100000000000,
100000000000000000000000100000000000100000000000,
100000000000000000000000300000000000000000000000,
000000000000000000000000000000000000000000000000,
200000000000200000000000200000000000000000000000,
200000000000000000000000200000000000000000000000,
200000000000200000000000200000000000000000000000,
400000000000000000000000000000000000000000000000,
100000000000000000000000100000000000000000000000,
100000000000100000000000100000000000000000000000,
100000000000000000000000100000000000000000000000,
100000000000100000000000100000000000000000000000,
500000000000000000000000000000000000800000000000,
000000000000000000000000000000000000000000000000,
#GOGOSTART
300000000000000000000000100000000000000000000000,
100000000000100000100000000000100000100000000000,
100000000000100000000000100000000000000000000000,
500000000000000000800000000000000000000000000000,
300000000000000000000000100000000000000000000000,
100000000000100000100000000000100000100000000000,
100000000000100000000000100000000000000000000000,
500000000000000000800000000000000000000000000000,
#GOGOEND
100000000000000000000000100000000000000000000000,
300000000000300000000000300000000000000000000000,
100000000000000000000000100000000000000000000000,
300000000000300000000000300000000000000000000000,
200000000000000000000000200000000000000000000000,
400000000000400000000000400000000000000000000000,
700000000000000000000000000000000000000000000000,
000000000000000000000000000000800000000000000000,
#END