Files
2023-06-15 19:15:39 -05:00

721 lines
12 KiB
Plaintext

//TJADB Project
TITLE:Time to dine Ⅱ
TITLEJA:Time to dine Ⅱ
SUBTITLE:--Torine
BPM:160
WAVE:Time to dine II.ogg
OFFSET:-4.887
DEMOSTART:6.387
COURSE:Hard
LEVEL:8
#START
000000000000000000000000000000000000100100100100,
100000000100000000100000100000000000000000000000,
100000000500000000000000000000008000000000000000,
100000000100000000100000100000000000000000000000,
100000000000200000100000100100100000100000000000,
100000000100000000100000100000000000000000000000,
100000000000000000000000000000000000000000000000,
100000000100000000100000100000000000000000000000,
#BPMCHANGE 159.23
500000000000000000000000000008000000000000000000,
#GOGOSTART
#BARLINEOFF
#BPMCHANGE 200
#SCROLL 1.25
100000000100000000100000100000000000000000100000,
100000000500000000000000000000080000000000000000,
100000000100000000100000100000000000000000000000,
100000000000200000100000100100100000200000000000,
100000000100000000100000100000000000000000000000,
#BARLINEON
#BPMCHANGE 201.22
#SCROLL 1
100000000000000000000000000000000000000000000000,
#GOGOEND
#BPMCHANGE 160
100000000100000000100000100000000000000000000000,
500000000000000000000000000008000000000000000000,
#GOGOSTART
#MEASURE 5/4
#SCROLL 2
100000100000100000200000200000200000100000100000200000200000,
100000000100000000100000000100000000100000000100000000000000,
#GOGOEND
#MEASURE 4/4
#SCROLL 1
100000100000100000100100100000100000100000000000,
200000100000000000200000100000100000100000100100,
100000100000100000000000200000100000000000100100,
100000100000100000100100100000100000100000000000,
200000100000000000200000100000100000100000100100,
100000000000100000100100000100100000100100000100,
100000100000100000100100100000100000100000100000,
200000100000000000200000000000100000100000000000,
#BARLINEOFF
,
,
,
,
#BARLINEON
100000000100000000100000100000000100000000100000,
100000000000200000100000100100100000200000000000,
100000000100000000100000100000000000000000100000,
100000000500000000000000000000008000000000000000,
100000000100000000100000100000000100000000100000,
100000000000200000100000100100100000200000000000,
100000000100000000100000100000000000000000100000,
#GOGOSTART
100000000100000000000000100100100000200000000000,
100000000100000000100000100000000100000000100000,
100000000000100000000000100100100000200000000000,
#MEASURE 5/4
#SCROLL 2
100000100000100000200000200000200000100000100000200000200000,
100000000100000000100000000100000000100000000100000000000000,
#GOGOEND
#MEASURE 3/4
#SCROLL 1
100000100000100000100100100000200000,
200000000000200000100000000000200000,
100000100000100000100100100000200000,
200000000000200000100000000000100100,
100000100000100000100100100000200000,
200000000000200000100000000000200000,
100000000100000000100100100000000000,
#BPMCHANGE 159.58
100000100100000100100000100100000000,
#GOGOSTART
#BARLINEOFF
#BPMCHANGE 200
#SCROLL 1.25
100000100000100000100100100000200000,
200000000000200000100000000000200000,
100000100000100000100100100000200000,
200000000000200000100000000000200000,
100000100000100000100100100000200000,
200000000000200000100000000000200000,
100000100000100000100100100000000100,
000000100000000100000000100000100100,
100000000100000000100000000100000000,
100000000100000000100000000100000000,
#MEASURE 4/4
100000000000100010001000100000100000100000100000,
200000200000100000100000200020002000200000100000,
300000000000000000000000300000000000000000000000,
#BPMCHANGE 200.5
300000000000000000000000300000000000000000000000,
#GOGOEND
#BARLINEON
#BPMCHANGE 157
#SCROLL 1
100000000000100000000000100000000100000000100000,
#SCROLL 2
200200200000100100100000200200200000000000000000,
#SCROLL 1
100000000000100010001000100000100000100000100000,
200000200000100000100000200020002000200000100000,
100000000000100000000000100010001000100000100000,
100010001000100000100000100010001000100000100000,
#GOGOSTART
#BARLINEOFF
#MEASURE 3/4
#SCROLL 1.5
100000000100000000100000000100000000,
#SCROLL 1.25
100000000100000000100000000100000000,
#MEASURE 4/4
#SCROLL 1.75
100000100000100000100000200000200000100000100000,
#MEASURE 3/4
#SCROLL 1.5
100000000200000000100000000200000000,
#SCROLL 2
100000000200000000100000000200000000,
#SCROLL 1.75
100000100000100000100000100100100000,
#MEASURE 4/4
#SCROLL 2.25
100100100000100100100000100100100100100000000000,
#GOGOEND
#SCROLL 1
,
,
#MEASURE 6/4
,
#MEASURE 4/4
,
#BARLINEON
100000000000100000000000200020002000200000100000,
300000000000000000000000300000000000000000000000,
300000000000000000000000400000000000000000000000,
100000000000100000000000100000000100000000100000,
#SCROLL 2
200200200000000000000000200200200000000000000000,
#SCROLL 1
100000000000000000000000000000100000100000100000,
000000000000100000100000200020002000200000000000,
100000000000100000000000100010001000100000100000,
000000000000000000000000100010001000100000100000,
#GOGOSTART
#BARLINEOFF
#MEASURE 3/4
#SCROLL 1.5
100000000100000000100000000100000000,
#SCROLL 1.25
100000000100000000100000000100000000,
#MEASURE 4/4
#SCROLL 1.75
100000100000100000100000100000100000100000100000,
#MEASURE 3/4
#SCROLL 1.5
100000000200000000100000000200000000,
#SCROLL 2
100000000000000000000000000100000000,
#SCROLL 1.75
100000100000100000100000100100100100,
#MEASURE 6/4
#SCROLL 2.25
100000000000000000000000000000000000000000000000
#SCROLL 2
100000000000000000000000,
#GOGOEND
#BARLINEON
#MEASURE 4/4
#SCROLL 1
100000000000200000100000100100100000100000000000,
100000000000200000100000100100100000100000100100,
100000000000200000100000100100100000100000000000,
100000000000200000100000100100100000100000100100,
100000000000200000100000100100100000100000000000,
100000000000200000100000100100100000100000100100,
100000000000000000000000000000000000000000000000,
#SCROLL 2
100000000100000000100000200000000200000000200000,
#SCROLL 1
100000000000200000100000100100100000100000000000,
000000000000200000100000100000100000000000100100,
100000000000000000100000100100100000000000100000,
100000100000100100100000100100100000100000000000,
000000000000200000100000100100100000100000000000,
100000000000000000100000100000100000000000000000,
100000000000000000000000000000000000000000000000,
#GOGOSTART
#SCROLL 2
300000000300000000300000300000000300000000300000,
400000000400000000400000400000000400000000400000,
#GOGOEND
#SCROLL 1
000000000000000000000000000000000000000000000000,
#GOGOSTART
100000000100000000100000100000000100000000100000,
100000000100000000000000100100100000200000000000,
100000000100000000100000100000000100000000100000,
100000000000200000100000100100100100100000000000,
100000000100000000100000100000000100000000100000,
100000000000000000000000000000000000000000000000,
100000000100000000100000100000000100000000100000,
100000000000100000000000100100100100100100100100,
100000000000000000000000000000000000000000000000,
#SCROLL 2
101020001010101000101010001010102000100010000300,
#GOGOEND
#END
COURSE:Normal
LEVEL:7
#START
,
10011001,
100000000500000000000000000000008000000000000000,
10011001,
10101121,
10011001,
1,
10011001,
#BPMCHANGE 159.23
500000000000000000000000000000008000000000000000,
#GOGOSTART
#BARLINEOFF
#BPMCHANGE 200
#SCROLL 1.25
10011001,
100000000500000000000000000000008000000000000000,
10011001,
10101121,
10011001,
#BARLINEON
#BPMCHANGE 201.22
#SCROLL 1
1,
#GOGOEND
#BPMCHANGE 160
10011001,
500000000000000000000000000000008000000000000000,
#GOGOSTART
#MEASURE 5/4
#SCROLL 2
1111112211,
100000000100000000100000000100000000100000000100000000000000,
#GOGOEND
#MEASURE 4/4
#SCROLL 1
10200220,
12001020,
02201200,
10200220,
12001020,
02201200,
10201220,
12001020,
#BARLINEOFF
,
,
,
,
#BARLINEON
10011001,
10101122,
10011001,
100000000500000000000000000000008000000000000000,
10011001,
10101122,
10011000,
#GOGOSTART
10101120,
10011001,
10101120,
#MEASURE 5/4
#SCROLL 2
1111112211,
100000000100000000100000000100000000100000000100000000000000,
#GOGOEND
#MEASURE 3/4
#SCROLL 1
102102,
22,
102102,
22,
102102,
22,
102101,
#BPMCHANGE 159.58
102200,
#GOGOSTART
#BARLINEOFF
#BPMCHANGE 200
#SCROLL 1.25
102102,
2,
102102,
2,
102102,
2,
102102,
2,
102110,
102110,
#MEASURE 4/4
100111100100,
100100111100,
33,
#BPMCHANGE 200.5
33,
#GOGOEND
#BARLINEON
#BPMCHANGE 157
#SCROLL 1
1110,
#SCROLL 2
600000000000000000000000000000000008000000000000,
#SCROLL 1
100111100100,
100100111100,
100100111100,
100100111100,
#GOGOSTART
#BARLINEOFF
#MEASURE 3/4
#SCROLL 1.5
11,
#SCROLL 1.25
11,
#MEASURE 4/4
#SCROLL 1.75
11110011,
#MEASURE 3/4
#SCROLL 1.5
1110,
#SCROLL 2
1110,
#SCROLL 1.75
1111,
#MEASURE 4/4
#SCROLL 2.25
1111,
#GOGOEND
#SCROLL 1
,
,
#MEASURE 6/4
,
#MEASURE 4/4
,
#BARLINEON
100100111100,
33,
34,
1000100010010010,
#SCROLL 2
600000000000000000000000000000000008000000000000,
#SCROLL 1
100111100000,
100100111100,
100100111100,
111100111100,
#GOGOSTART
#BARLINEOFF
#MEASURE 3/4
#SCROLL 1.5
1111,
#SCROLL 1.25
1111,
#MEASURE 4/4
#SCROLL 1.75
11111111,
#MEASURE 3/4
#SCROLL 1.5
1121,
#SCROLL 2
1121,
#SCROLL 1.75
1111,
#MEASURE 6/4
#SCROLL 2.25
100000000000000000000000000000000000000000000000
#SCROLL 2
100000000000000000000000,
#GOGOEND
#BARLINEON
#MEASURE 4/4
#SCROLL 1
10211010,
10211110,
10211010,
11101010,
10211010,
10211110,
1,
#SCROLL 2
1001001020020020,
#SCROLL 1
00211010,
00211100,
00211000,
11101100,
00211010,
10011010,
1,
#GOGOSTART
#SCROLL 2
3003003030030030,
4004004040040040,
#GOGOEND
#SCROLL 1
,
#GOGOSTART
10011001,
10101120,
10011001,
10101122,
10011001,
1,
10011001,
10101120,
1,
#SCROLL 2
101020001010101000101010001010102000100010000300,
#END
COURSE:Easy
LEVEL:5
#START
,
10011001,
100000000500000000000000000000008000000000000000,
10011001,
1012,
10011001,
1,
10011001,
#BPMCHANGE 159.23
500000000000000000000000000000008000000000000000,
#GOGOSTART
#BARLINEOFF
#BPMCHANGE 200
#SCROLL 1.25
10011001,
100000000500000000000000000000008000000000000000,
10011001,
1012,
10011001,
#BARLINEON
#BPMCHANGE 201.22
#SCROLL 1
1,
#GOGOEND
#BPMCHANGE 160
10011001,
100000000500000000000000000000008000000000000000,
#GOGOSTART
#MEASURE 5/4
#SCROLL 2
1111112220,
100000000100000000100000000100000000100000000100000000000000,
#GOGOEND
#MEASURE 4/4
#SCROLL 1
10200220,
02001020,
02200200,
10200220,
02001020,
02200200,
11100220,
02001110,
#BARLINEOFF
,
,
,
,
#BARLINEON
10011001,
500000000000000000000000000000008000000000000000,
10011001,
100000000500000000000000000000008000000000000000,
10011001,
10101110,
10011000,
#GOGOSTART
1012,
10011001,
10101110,
#MEASURE 5/4
#SCROLL 2
1111112220,
100000000100000000100000000100000000100000000100000000000000,
#GOGOEND
#MEASURE 3/4
#SCROLL 1
102002,
22,
102002,
22,
102001,
12,
102002,
#BPMCHANGE 159.58
22,
#GOGOSTART
#BARLINEOFF
#BPMCHANGE 200
#SCROLL 1.25
122,
1,
121,
1,
122,
1,
121,
1,
121,
121,
#MEASURE 4/4
1110,
1,
33,
#BPMCHANGE 200.5
33,
#GOGOEND
#BARLINEON
#BPMCHANGE 157
#SCROLL 1
1110,
#SCROLL 2
600000000000000000000000000000000008000000000000,
#SCROLL 1
1110,
1120,
1122,
1122,
#GOGOSTART
#BARLINEOFF
#MEASURE 3/4
#SCROLL 1.5
11,
#SCROLL 1.25
11,
#MEASURE 4/4
#SCROLL 1.75
1,
#MEASURE 3/4
#SCROLL 1.5
11,
#SCROLL 2
11,
#SCROLL 1.75
1110,
#MEASURE 4/4
#SCROLL 2.25
1110,
#GOGOEND
#SCROLL 1
,
,
#MEASURE 6/4
,
#MEASURE 4/4
,
#BARLINEON
1,
33,
33,
1110,
#SCROLL 2
600000000000000000000000000000000008000000000000,
#SCROLL 1
1110,
1120,
1122,
1122,
#GOGOSTART
#BARLINEOFF
#MEASURE 3/4
#SCROLL 1.5
11,
#SCROLL 1.25
11,
#MEASURE 4/4
#SCROLL 1.75
10001111,
#MEASURE 3/4
#SCROLL 1.5
12,
#SCROLL 2
12,
#SCROLL 1.75
1111,
#MEASURE 6/4
#SCROLL 2.25
100000000000000000000000000000000000000000000000
#SCROLL 2
100000000000000000000000,
#GOGOEND
#BARLINEON
#MEASURE 4/4
#SCROLL 1
1110,
10101110,
1110,
10101011,
1110,
10101011,
1,
#SCROLL 2
11,
#SCROLL 1
1120,
10102011,
1120,
10102011,
1120,
10102011,
1,
#GOGOSTART
#SCROLL 2
33,
33,
#GOGOEND
#SCROLL 1
,
#GOGOSTART
10011001,
1012,
10011001,
10101110,
10011001,
1,
10011001,
10101110,
1,
#SCROLL 2
101020001010101000101010001010102000100010000300,
#GOGOEND
#END