902 lines
20 KiB
Plaintext
902 lines
20 KiB
Plaintext
//TJADB Project
|
|
TITLE:Wadaiko Sentai Don Ranger
|
|
TITLEJA:和太鼓戦隊ドンレンジャー
|
|
SUBTITLE:--Yuri Misumi feat. Takayoshi Tanimoto
|
|
BPM:160
|
|
WAVE:Wadaiko Sentai Don Ranger.ogg
|
|
OFFSET:-3.551
|
|
DEMOSTART:84.506
|
|
|
|
COURSE:Oni
|
|
LEVEL:7
|
|
|
|
STYLE:Double
|
|
BALLOON:10,20,10,10,3,20
|
|
|
|
|
|
#START P1
|
|
|
|
|
|
22000010,
|
|
22000010,
|
|
22000010,
|
|
22000110,
|
|
0011001100000000,
|
|
22000110,
|
|
0011001100000000,
|
|
22000110,
|
|
22000000,
|
|
2222200000000000,
|
|
10110101,
|
|
10112220,
|
|
30101107,
|
|
0008,
|
|
20020000,
|
|
0010001000102220,
|
|
2000200022200000,
|
|
11201120,
|
|
1010102020202220,
|
|
00101107,
|
|
,
|
|
0008,
|
|
1110111010103000,
|
|
1001000010101000,
|
|
2220222010103000,
|
|
1001000010101010,
|
|
10120020,
|
|
00112220,
|
|
10101105,
|
|
000000000000000000000000000000000008000000000000,
|
|
01122201,
|
|
21010105,
|
|
000000000000000000000008000000000000000000000000,
|
|
,
|
|
10010010,
|
|
03000000,
|
|
10010000,
|
|
11201120,
|
|
10210120,
|
|
10210120,
|
|
10210112,
|
|
03,
|
|
11220000,
|
|
10010011,
|
|
2022000000000000,
|
|
00222011,
|
|
2022201000000000,
|
|
10010011,
|
|
1001001000000000,
|
|
02202100,
|
|
1001001000000000,
|
|
3001001000000000,
|
|
1110000011100000,
|
|
33,
|
|
10110101,
|
|
10112220,
|
|
30101107,
|
|
0008,
|
|
20020000,
|
|
0010001000102220,
|
|
2000200022200000,
|
|
11201120,
|
|
1010102020202220,
|
|
4002,
|
|
11200000,
|
|
0000000020010010,
|
|
11200000,
|
|
0000000020010010,
|
|
1010000010110000,
|
|
0000202010110000,
|
|
1010000010110000,
|
|
0000202010110000,
|
|
1110000011100000,
|
|
700000000000800000000000500000000000000000000008,
|
|
00101107,
|
|
,
|
|
0008,
|
|
|
|
|
|
#END
|
|
|
|
|
|
#START P2
|
|
|
|
|
|
00002200,
|
|
00002200,
|
|
00002200,
|
|
0011001100000000,
|
|
22000110,
|
|
0011001100000000,
|
|
22000110,
|
|
0011001100000000,
|
|
22000000,
|
|
0000000022222000,
|
|
20020000,
|
|
0010001000102220,
|
|
0000000022200000,
|
|
11201120,
|
|
10110101,
|
|
10112220,
|
|
30101107,
|
|
0008,
|
|
1010102020202220,
|
|
00101107,
|
|
,
|
|
0008,
|
|
1001000010101000,
|
|
1110111010103000,
|
|
1001000010101000,
|
|
2220222010103000,
|
|
10010010,
|
|
03000000,
|
|
10010000,
|
|
11201120,
|
|
10210120,
|
|
10210120,
|
|
00000100,
|
|
2220201000001010,
|
|
10120020,
|
|
00112220,
|
|
10101107,
|
|
0008,
|
|
10101107,
|
|
00008112,
|
|
2000101020222010,
|
|
03,
|
|
10010011,
|
|
2022201000000000,
|
|
10010022,
|
|
2,
|
|
10010011,
|
|
2022201000000000,
|
|
00000011,
|
|
1001001000000000,
|
|
0000000010010010,
|
|
0000000030010010,
|
|
0000222000002220,
|
|
33,
|
|
20020000,
|
|
0010001000102220,
|
|
0000000022200000,
|
|
11201120,
|
|
10110101,
|
|
10112220,
|
|
30101107,
|
|
0008,
|
|
1010102020202220,
|
|
4002,
|
|
0000000020010010,
|
|
11200000,
|
|
0000000020010010,
|
|
11200000,
|
|
0000202010110000,
|
|
1010000010110000,
|
|
0000202010110000,
|
|
1010000010110000,
|
|
0000222000002220,
|
|
700000000000800000000000500000000000000000000008,
|
|
00101107,
|
|
,
|
|
0008,
|
|
|
|
|
|
#END
|
|
|
|
|
|
STYLE:Single
|
|
BALLOON:10,10,20,10,7,3,3,10,10,3,20
|
|
|
|
|
|
#START
|
|
|
|
|
|
,
|
|
,
|
|
,
|
|
,
|
|
,
|
|
,
|
|
,
|
|
,
|
|
,
|
|
200200200200200000200000200200200200200000000000,
|
|
100000200000100000100000000000100000200000100000,
|
|
100000000000100000100000200000200000200000100000,
|
|
300000000000100000000000100100100000000000700000,
|
|
000000000000000000000000000000000000800000000000,
|
|
100000200000100000100000000000100000200000100000,
|
|
100000000000100000100000200000200000200000100000,
|
|
300000000000100000000000100100100000000000700000,
|
|
000000000000000000000000000000000000800000000000,
|
|
100000200000100000200000100000200000200200200000,
|
|
200000200000100000000000100100100000000000700000,
|
|
,
|
|
8,
|
|
100100200000100100200000300000300000300000000000,
|
|
100100200000100100200000300000300000300000000000,
|
|
200100100000200100100000300000300000300000000000,
|
|
200100100000200100100000300000300000300000000000,
|
|
100000100000200000200000000000100000200000000000,
|
|
000000000000100000100000200000200000200000000000,
|
|
100000200000100000000000100000200000100000500000,
|
|
000000000000000000000000000000000008000000000000,
|
|
000000100000100000200000200000200000000000100000,
|
|
200000100000000000100000200000100000200000500000,
|
|
000000000000000000000008000000100000000000000000,
|
|
200200200000200000100200200000000000100000100000,
|
|
100000100000200000200000000000100000200000000000,
|
|
000000000000100000100000200000200000200000000000,
|
|
100000200000100000000000100000200000100000700000,
|
|
000000000000000000000000000000000000800000000000,
|
|
100000100000200000200000100000100000100000700000,
|
|
000000000000000000000000800000100000100000200000,
|
|
200200200000100000100000200000200200200000100000,
|
|
000000100000100000000000300000000000000000000000,
|
|
100000100000200000200200200000000000100000100000,
|
|
200000200200200000100000000000000000100000100000,
|
|
200000200200200000000000000000000000200000200000,
|
|
200000000000200000200000200000000000100000100000,
|
|
200000200200200000100000200000200000100000100000,
|
|
200000200200200000100000000000000000100000100000,
|
|
200200200000100000000100000000000000000000000000,
|
|
000000200000200000000000200000100000000000000000,
|
|
300000000100000000100000400000000200000000200000,
|
|
300000000100000000100000400000000200000000200000,
|
|
70807080,
|
|
300000000000000000000000300000000000000000000000,
|
|
100000200000100000100000000000100000200000100000,
|
|
100000000000100000100000200000200000200000100000,
|
|
300000000000100000000000100100100000000000700000,
|
|
0008,
|
|
100000200000100000100000000000100000200000100000,
|
|
100000000000100000100000200000200000200000100000,
|
|
300000000000100000000000100100100000000000700000,
|
|
0008,
|
|
100000200000100000200000100000200000200200200000,
|
|
400000000000000000000000000000000000200000000000,
|
|
100000100000200200200000200000000200000000000000,
|
|
100000100000200200200000200000000200000000000000,
|
|
100000100000200200200000200000000200000000000000,
|
|
100000100000200200200000200000000200000000000000,
|
|
100000100000200000200000100000100100000100100000,
|
|
100000100000200000200000100000100100000200200000,
|
|
100000100000200000200000100000100100000100100000,
|
|
100000100000200000200000100000100100000200200000,
|
|
300000300000000000000000500000000000008000000000,
|
|
700000000000800000000000600000000000000000000008,
|
|
000000000000100000000000100100100000000000700000,
|
|
000000000000000000000000000000000000000000000008,
|
|
|
|
|
|
#END
|
|
|
|
|
|
COURSE:Hard
|
|
LEVEL:5
|
|
BALLOON:10,10,20,10,7,10,10,3,20
|
|
SCOREINIT:780
|
|
SCOREDIFF:180
|
|
|
|
|
|
#START
|
|
|
|
|
|
200000200000000000000000000000000000100000000000,
|
|
200000200000000000000000000000000000100000000000,
|
|
200000200000000000000000000000000000100000000000,
|
|
200000200000000000000000000000100000100000000000,
|
|
200000200000000000000000000000100000100000000000,
|
|
200000200000000000000000000000100000100000000000,
|
|
200000200000000000000000000000100000100000000000,
|
|
200000200000000000000000000000100000100000000000,
|
|
200000200000000000000000000000000000000000000000,
|
|
200200200200200000000000200200200200200000000000,
|
|
100000000000100000100000000000100000000000100000,
|
|
100000000000100000100000200000200000200000000000,
|
|
300000000000100000000000100000100000000000700000,
|
|
000000000000000000000000000000000800000000000000,
|
|
100000000000100000100000000000100000000000100000,
|
|
100000000000100000100000200000200000200000000000,
|
|
300000000000100000000000100000100000000000700000,
|
|
000000000000000000000000000000000800000000000000,
|
|
100000100000100000000000200000200000200200200000,
|
|
000000000000100000000000100000100000000000700000,
|
|
000000000000000000000000000000000000000000000800,
|
|
000000000000000000000000000000000000000000000000,
|
|
100100100000100100100000100000100000300000000000,
|
|
100100100000100100100000100000100000300000000000,
|
|
200200200000200200200000100000100000300000000000,
|
|
200200200000200200200000100000100000300000000000,
|
|
100000000000100000200000000000000000200000000000,
|
|
000000000000100000100000200000200000200000000000,
|
|
100000000000100000000000100000100000000000500000,
|
|
000000000000000000000000000000000800000000000000,
|
|
000000100000100000200000200000200000000000100000,
|
|
200000100000000000100000000000100000000000500000,
|
|
000000000000000000000800000000100000000000000000,
|
|
200200200000200000100000000000000000100000100000,
|
|
100000000000100000200000000000000000200000000000,
|
|
000000000000100000100000200000200000200000000000,
|
|
100000000000100000000000100000100000000000700000,
|
|
000000000000000000000000000000000800000000000000,
|
|
100000000000100000000000100000100000000000700000,
|
|
000000000000000000000800000000100000100000200000,
|
|
200000000000100000100000200000200200200000100000,
|
|
000000000000000000000000300000000000000000000000,
|
|
100000100000200000200000000000000000100000100000,
|
|
200000200200200000100000000000000000100000100000,
|
|
200000200200200000000000000000000000200000200000,
|
|
200000000000200000200000200000000000100000100000,
|
|
200000200200200000100000000000000000100000100000,
|
|
200000200200200000100000000000000000100000100000,
|
|
100000000000100000000100000000000000000000000000,
|
|
000000200000200000000000200000100000000000000000,
|
|
100000000100000000100000100000000100000000100000,
|
|
300000000100000000100000300000000100000000100000,
|
|
100100100000000000000000100100100000000000000000,
|
|
300000000000000000000000300000000000000000000000,
|
|
100000000000100000100000000000100000000000100000,
|
|
100000000000100000100000200000200000200000000000,
|
|
300000000000100000000000100000100000000000700000,
|
|
000000000000000000000000000000000800000000000000,
|
|
100000000000100000100000000000100000000000100000,
|
|
100000000000100000100000200000200000200000000000,
|
|
300000000000100000000000100000100000000000700000,
|
|
000000000000000000000000000000000800000000000000,
|
|
100000100000100000000000200000200000200200200000,
|
|
400000000000000000000000000000000000200000000000,
|
|
100000100000200000000000200000000000000000000000,
|
|
100000100000200000000000200000000200000000000000,
|
|
100000100000200000000000200000000000000000000000,
|
|
100000100000200000000000200000000200000000000000,
|
|
100000100000200000200000100000100100000000000000,
|
|
100000100000200000200000100000100100000000000000,
|
|
100000100000200000200000100000100100000000000000,
|
|
100000100000200000200000100000100100000000000000,
|
|
100100100000000000000000100100100000000000000700,
|
|
000000800000000000000500000000000000000000800000,
|
|
000000000000100000000000100000100000000000700000,
|
|
000000000000000000000000000000000000000000000008,
|
|
|
|
|
|
#END
|
|
|
|
|
|
COURSE:Normal
|
|
LEVEL:4
|
|
|
|
STYLE:Double
|
|
BALLOON:8,8,18,8,18
|
|
SCOREINIT:1010
|
|
|
|
|
|
#START P1
|
|
|
|
|
|
22000000,
|
|
22000000,
|
|
22000000,
|
|
22000010,
|
|
,
|
|
22000010,
|
|
,
|
|
22000010,
|
|
22000000,
|
|
22000000,
|
|
10110101,
|
|
1102,
|
|
00101107,
|
|
0008,
|
|
10201100,
|
|
10201100,
|
|
00000007,
|
|
0008,
|
|
11100000,
|
|
00101107,
|
|
,
|
|
0008,
|
|
10101110,
|
|
,
|
|
20201110,
|
|
,
|
|
10120020,
|
|
0112,
|
|
10101105,
|
|
000000000000000000000000000000000008000000000000,
|
|
01110101,
|
|
11010105,
|
|
000000000000000000000008000000000000000000000000,
|
|
,
|
|
10001100,
|
|
10001100,
|
|
,
|
|
10201100,
|
|
1202,
|
|
1202,
|
|
10210200,
|
|
01,
|
|
10110010,
|
|
10110010,
|
|
15000000,
|
|
000000000000000000000008000000000000000000000000,
|
|
10020000,
|
|
10020000,
|
|
10110001,
|
|
01110100,
|
|
1100,
|
|
22200000,
|
|
500000000008000000000000000000000000000000000000,
|
|
33,
|
|
10110101,
|
|
1102,
|
|
00101107,
|
|
0008,
|
|
10201100,
|
|
10201100,
|
|
00000005,
|
|
000000000000000000000000000000000008000000000000,
|
|
11100000,
|
|
3002,
|
|
11200000,
|
|
0020002010010000,
|
|
11200000,
|
|
0020002010010000,
|
|
1010200010010000,
|
|
02020000,
|
|
1010200010010000,
|
|
02020000,
|
|
11001100,
|
|
500000000000000000000008000000000000000000000000,
|
|
00101107,
|
|
,
|
|
0008,
|
|
|
|
|
|
#END
|
|
|
|
|
|
#START P2
|
|
|
|
|
|
00000220,
|
|
00000220,
|
|
00000220,
|
|
,
|
|
22000010,
|
|
,
|
|
22000010,
|
|
,
|
|
22000000,
|
|
00002200,
|
|
10201100,
|
|
10201100,
|
|
00000007,
|
|
0008,
|
|
10110101,
|
|
1102,
|
|
00101107,
|
|
0008,
|
|
00001110,
|
|
00101107,
|
|
,
|
|
0008,
|
|
,
|
|
10101110,
|
|
,
|
|
20201110,
|
|
10001100,
|
|
10001100,
|
|
,
|
|
10201100,
|
|
1202,
|
|
1202,
|
|
11001100,
|
|
22010000,
|
|
10120020,
|
|
0112,
|
|
10101105,
|
|
000000000000000000000000000000000008000000000000,
|
|
10101101,
|
|
00000101,
|
|
10100101,
|
|
,
|
|
10020000,
|
|
10020000,
|
|
10110001,
|
|
01110010,
|
|
10110010,
|
|
10110010,
|
|
15000000,
|
|
000000000008000000000000000000000000000000000000,
|
|
0011,
|
|
00002220,
|
|
000000000000000000000000500000000008000000000000,
|
|
33,
|
|
10201100,
|
|
10201100,
|
|
00000005,
|
|
000000000000000000000000000000000008000000000000,
|
|
10110101,
|
|
1102,
|
|
00101107,
|
|
0008,
|
|
00001110,
|
|
3002,
|
|
0020002010010000,
|
|
11200000,
|
|
0020002010010000,
|
|
11200000,
|
|
02020000,
|
|
1010200010010000,
|
|
02020000,
|
|
1010200010010000,
|
|
00220022,
|
|
000000000000000000000000500000000000000000000008,
|
|
00101107,
|
|
,
|
|
0008,
|
|
|
|
|
|
#END
|
|
|
|
|
|
STYLE:Single
|
|
BALLOON:8,8,18,8,8,18
|
|
SCOREINIT:830
|
|
SCOREDIFF:210
|
|
|
|
|
|
#START
|
|
|
|
|
|
200000200000000000000000000000000000000000000000,
|
|
200000200000000000000000000000000000000000000000,
|
|
200000200000000000000000000000000000000000000000,
|
|
200000200000000000000000000000000000100000000000,
|
|
200000200000000000000000000000000000100000000000,
|
|
200000200000000000000000000000000000100000000000,
|
|
200000200000000000000000000000000000100000000000,
|
|
200000200000000000000000000000000000100000000000,
|
|
200000200000000000000000000000000000000000000000,
|
|
200000200000000000000000000000000000000000000000,
|
|
100000000000100000100000000000100000000000100000,
|
|
100000000000100000000000000000000000200000000000,
|
|
000000000000100000000000100000100000000000700000,
|
|
000000000000000000000000000000800000000000000000,
|
|
100000000000100000100000000000100000000000100000,
|
|
100000000000100000000000000000000000200000000000,
|
|
000000000000100000000000100000100000000000700000,
|
|
000000000000000000000000000000800000000000000000,
|
|
100000100000100000000000100000100000100000000000,
|
|
000000000000100000000000100000100000000000700000,
|
|
000000000000000000000000000000000000000000000000,
|
|
000000100000800000000000000000000000000000000000,
|
|
000000000000000000000000000000800000000000000000,
|
|
100000000000100000000000100000100000100000000000,
|
|
100000000000100000000000300000000000000000000000,
|
|
200000000000200000000000100000100000100000000000,
|
|
200000000000200000000000300000000000000000000000,
|
|
100000000000100000200000000000000000200000000000,
|
|
000000000000100000000000100000000000200000000000,
|
|
100000000000100000000000100000100000000000500000,
|
|
000000000000000000000000000000800000000000000000,
|
|
000000100000100000100000000000100000000000100000,
|
|
100000100000000000100000000000100000000000500000,
|
|
000000000000000000800000000000100000000000000000,
|
|
200000200000000000100000000000000000000000000000,
|
|
100000000000100000200000000000000000200000000000,
|
|
000000000000100000000000100000000000200000000000,
|
|
100000000000100000000000100000100000000000500000,
|
|
000000000000000000000000000000800000000000000000,
|
|
100000000000100000000000100000100000000000100000,
|
|
000000000000000000000000000000100000000000100000,
|
|
100000000000100000000000000000100000000000100000,
|
|
000000000000000000000000300000000000000000000000,
|
|
100000000000100000100000000000000000100000000000,
|
|
100000100000000000100000000000000000100000000000,
|
|
100000500000000000000000000000000000000000000000,
|
|
000000000000000000800000000000000000100000000000,
|
|
100000000000100000100000000000000000100000000000,
|
|
100000100000000000100000000000000000100000100000,
|
|
100000000000100000100000000000000000000000000000,
|
|
000000000000000000000000000000100000000000000000,
|
|
100000000000100000000000100000000000100000000000,
|
|
200000200000200000000000200000200000200000000000,
|
|
500000800000000000000000500000800000000000000000,
|
|
300000000000000000000000300000000000000000000000,
|
|
100000000000100000100000000000100000000000100000,
|
|
100000000000100000000000000000000000200000000000,
|
|
000000000000100000000000100000100000000000700000,
|
|
000000000000000000000000000000800000000000000000,
|
|
100000000000100000100000000000100000000000100000,
|
|
100000000000100000000000000000000000200000000000,
|
|
000000000000100000000000100000100000000000700000,
|
|
000000000000000000000000000000800000000000000000,
|
|
100000100000100000000000100000100000100000000000,
|
|
400000000000000000000000000000000000200000000000,
|
|
100000100000200000000000000000000000000000000000,
|
|
100000100000200000000000000000000000000000000000,
|
|
100000100000200000000000000000000000000000000000,
|
|
100000100000200000000000000000000000000000000000,
|
|
100000100000200000000000100000000100000000000000,
|
|
100000100000200000000000100000000100000000000000,
|
|
100000100000200000000000100000000100000000000000,
|
|
100000100000200000000000100000000100000000000000,
|
|
100000100000000000000000100000100000000000000000,
|
|
500000800000000000000000500000000000000000800000,
|
|
000000000000100000000000100000100000000000700000,
|
|
,
|
|
0008,
|
|
|
|
|
|
#END
|
|
|
|
|
|
COURSE:Easy
|
|
LEVEL:3
|
|
|
|
STYLE:Double
|
|
BALLOON:9
|
|
SCOREINIT:1000
|
|
|
|
|
|
#START P1
|
|
|
|
|
|
22000000,
|
|
,
|
|
22000000,
|
|
,
|
|
22000000,
|
|
,
|
|
22000000,
|
|
,
|
|
22000000,
|
|
12,
|
|
10110000,
|
|
1100,
|
|
00300005,
|
|
000000000000000000000008000000000000000000000000,
|
|
00000101,
|
|
12,
|
|
,
|
|
1110,
|
|
11101010,
|
|
00300007,
|
|
,
|
|
8,
|
|
10001100,
|
|
1200,
|
|
10001100,
|
|
13,
|
|
10110000,
|
|
,
|
|
10001100,
|
|
,
|
|
1100,
|
|
1,
|
|
1,
|
|
,
|
|
10110000,
|
|
,
|
|
1110,
|
|
,
|
|
1110,
|
|
1,
|
|
1110,
|
|
11,
|
|
12,
|
|
10110000,
|
|
12,
|
|
1110,
|
|
12,
|
|
10110000,
|
|
12,
|
|
,
|
|
11001000,
|
|
22002000,
|
|
11000000,
|
|
33,
|
|
10110000,
|
|
1100,
|
|
00300005,
|
|
000000000000000000000008000000000000000000000000,
|
|
10000101,
|
|
12,
|
|
,
|
|
1110,
|
|
11101010,
|
|
3,
|
|
,
|
|
,
|
|
,
|
|
,
|
|
11101000,
|
|
00111000,
|
|
11101000,
|
|
00222000,
|
|
11001100,
|
|
33,
|
|
00301005,
|
|
000000000000000000000000000000000000000000000008,
|
|
|
|
|
|
#END
|
|
|
|
|
|
#START P2
|
|
|
|
|
|
,
|
|
22000000,
|
|
,
|
|
22000000,
|
|
,
|
|
22000000,
|
|
,
|
|
22000000,
|
|
,
|
|
12,
|
|
00000101,
|
|
12,
|
|
,
|
|
1110,
|
|
10110000,
|
|
1100,
|
|
00300005,
|
|
000000000000000000000008000000000000000000000000,
|
|
10111010,
|
|
00300007,
|
|
,
|
|
8,
|
|
1200,
|
|
10001100,
|
|
1200,
|
|
13,
|
|
1001,
|
|
0111,
|
|
1100,
|
|
1,
|
|
10000001,
|
|
10010100,
|
|
,
|
|
,
|
|
1001,
|
|
0111,
|
|
10001100,
|
|
1,
|
|
10001100,
|
|
10000101,
|
|
11,
|
|
11,
|
|
10110000,
|
|
12,
|
|
10110000,
|
|
1110,
|
|
10110000,
|
|
12,
|
|
10110000,
|
|
,
|
|
10001100,
|
|
20002200,
|
|
00001100,
|
|
33,
|
|
10000101,
|
|
12,
|
|
,
|
|
1110,
|
|
10110000,
|
|
1100,
|
|
00300005,
|
|
000000000000000000000008000000000000000000000000,
|
|
00111010,
|
|
3,
|
|
,
|
|
,
|
|
,
|
|
,
|
|
00111000,
|
|
11101000,
|
|
00222000,
|
|
11101000,
|
|
00220022,
|
|
0404,
|
|
00301005,
|
|
000000000000000000000000000000000000000000000008,
|
|
|
|
|
|
#END
|
|
|
|
|
|
STYLE:Single
|
|
BALLOON:9
|
|
SCOREINIT:930
|
|
SCOREDIFF:300
|
|
|
|
|
|
#START
|
|
|
|
|
|
200000200000000000000000000000000000000000000000,
|
|
200000200000000000000000000000000000000000000000,
|
|
200000200000000000000000000000000000000000000000,
|
|
200000200000000000000000000000000000000000000000,
|
|
200000200000000000000000000000000000000000000000,
|
|
200000200000000000000000000000000000000000000000,
|
|
200000200000000000000000000000000000000000000000,
|
|
200000200000000000000000000000000000000000000000,
|
|
200000200000000000000000000000000000000000000000,
|
|
100000000000000000000000200000000000000000000000,
|
|
100000000000100000100000000000000000000000000000,
|
|
100000000000100000000000000000000000000000000000,
|
|
000000000000300000000000000000000000000000500000,
|
|
000000000000000000800000000000000000000000000000,
|
|
100000000000100000100000000000000000000000000000,
|
|
100000000000100000000000000000000000000000000000,
|
|
000000000000300000000000000000000000000000500000,
|
|
000000000000000000800000000000000000000000000000,
|
|
100000000000100000000000100000000000100000000000,
|
|
000000000000300000000000000000000000000000700000,
|
|
000000000000000000000000000000000000000000000000,
|
|
000000900000000000000000000000000000000000800000,
|
|
000000000000000000000000000000000000000000000000,
|
|
100000000000000000000000100000100000000000000000,
|
|
100000000000000000000000100000100000000000000000,
|
|
100000000000000000000000100000100000000000000000,
|
|
100000000000000000000000300000000000000000000000,
|
|
100000000000100000100000000000000000000000000000,
|
|
000000000000100000000000100000000000100000000000,
|
|
100000000000000000000000100000000000000000000000,
|
|
100000000000000000000000000000000000000000000000,
|
|
100000000000100000000000000000000000000000000000,
|
|
100000000000000000100000000000100000000000000000,
|
|
100000000000000000000000000000000000000000000000,
|
|
000000000000000000000000000000000000000000000000,
|
|
100000000000100000100000000000000000000000000000,
|
|
000000000000100000000000100000000000100000000000,
|
|
100000000000000000000000100000000000000000000000,
|
|
100000000000000000000000000000000000000000000000,
|
|
100000000000100000000000000000000000000000000000,
|
|
100000000000000000000000000000100000000000100000,
|
|
100000000000100000000000000000000000000000000000,
|
|
100000000000000000000000100000000000000000000000,
|
|
100000000000000000000000100000000000000000000000,
|
|
100000000000000000000000100000000000000000000000,
|
|
100000000000100000100000000000000000000000000000,
|
|
100000000000100000000000100000000000000000000000,
|
|
100000000000000000000000100000000000000000000000,
|
|
100000000000000000000000100000000000000000000000,
|
|
100000000000100000100000000000000000000000000000,
|
|
000000000000000000000000000000000000000000000000,
|
|
100000000000000000000000100000000000000000000000,
|
|
200000000000000000000000200000000000000000000000,
|
|
100000100000000000000000100000100000000000000000,
|
|
300000000000000000000000300000000000000000000000,
|
|
100000000000100000100000000000000000000000000000,
|
|
100000000000100000000000000000000000000000000000,
|
|
000000000000300000000000000000000000000000500000,
|
|
000000000000000000800000000000000000000000000000,
|
|
100000000000100000100000000000000000000000000000,
|
|
100000000000100000000000000000000000000000000000,
|
|
000000000000300000000000000000000000000000500000,
|
|
000000000000000000800000000000000000000000000000,
|
|
000000000000000000000000000000000000000000000000,
|
|
300000000000000000000000000000000000000000000000,
|
|
000000000000000000000000000000000000000000000000,
|
|
000000000000000000000000000000000000000000000000,
|
|
000000000000000000000000000000000000000000000000,
|
|
000000000000000000000000000000000000000000000000,
|
|
100000100000000000000000100000000000000000000000,
|
|
200000200000000000000000200000000000000000000000,
|
|
100000100000000000000000100000000000000000000000,
|
|
200000200000000000000000200000000000000000000000,
|
|
100000100000000000000000100000100000000000000000,
|
|
100000100000000000000000100000100000000000000000,
|
|
000000000000300000000000100000100000000000500000,
|
|
000000000000000000000000000000000000000000000008,
|
|
|
|
|
|
#END
|
|
|