Files
2023-06-15 19:00:23 -05:00

365 lines
4.3 KiB
Plaintext

//TJADB Project
TITLE:Yami no Tamashii
TITLEJA:闇の魂
SUBTITLE:--Yoshihito Yano
BPM:142
WAVE:Yami no Tamashii.ogg
OFFSET:-3.800
DEMOSTART:7.132
COURSE:Oni
LEVEL:9
BALLOON:37,55
SCOREINIT:550
SCOREDIFF:138
#START
3000102210201221,
1000102210201221,
100000100100200000200200100000100100200000202020,
1011202210121120,
100000100100200000200200100000100100200000202020,
1011202210121120,
300000200000100000100100200000100200100100202020,
1020121220221220,
300000200000100200200200100000200200100100202020,
1030202112211210,
100000100100200000200200100000100100200000202020,
1011202210121120,
100000100100200000200200100000100100200000202020,
1011202210121120,
2120121021201210,
1011221210212020,
000000200000100200100000200000100200100000202020,
1000300030001011,
1011112011201021,
1011112030222030,
2220302120112120,
#GOGOSTART
1110302120121021,
1210102120121021,
2120102120121021,
100200100000200100200000300000000100100000202020,
100000000100100000200000300000000000100020002000,
1700,
0008,
#GOGOEND
0011102011211020,
0022102021211020,
0011102011211020,
0022102021211121,
1010211011212010,
0011102011212020,
0010112011212021,
1011102021211021,
1010112021211021,
1010112021211021,
1010112021211021,
#GOGOSTART
1010112030221011,
2011221030221011,
2022112020112022,
111111700000,
,
00000800,
#GOGOEND
1000002210200000,
1000002210000000,
000022200200,
1000000010001011,
1000002210200022,
1020000500000000,
000000000000000000000000000000000000000000000008,
0000000030222110,
#GOGOSTART
300000100200200200100000300000100100200200202020,
1221122030301011,
200200100000100000102020200000200000100000100100,
1012201000212010,
1210102120101210,
1021201030212030,
1210302120301210,
300122102021,
211100000000,
#GOGOEND
#END
COURSE:Hard
LEVEL:7
BALLOON:16,18,20,28,16
SCOREINIT:720
SCOREDIFF:183
#START
3000002010101110,
3000002010101110,
1011100020222000,
1011100020222000,
1011100020222000,
1011100020222000,
3030001110222000,
3030001110222000,
3030001110222000,
3030001110222000,
1011100020222000,
1011100020222000,
1011100020222000,
1011100020222000,
12121212,
1000111010000020,
0020101110200020,
30303001,
1002001010020010,
10203003,
0303,
#GOGOSTART
3700,
00000800,
7,
0080000030011000,
300000000100100000000000300000000000100010001000,
1700,
08,
#GOGOEND
0020100011101030,
0020100011101030,
0020100011101030,
0020100011101030,
0020100011101030,
1000201000111020,
1333,
12112111,
21212101,
21112121,
21112101,//39
#GOGOSTART
2010100010111020,
1011102010000011,
1020101110201000,
111111700000,
,
#GOGOEND
08001000,
2000001110200000,
0000001110000000,
0012,
03,
0000001110200011,
12003000,
0000001110200000,
0000000030001120,
#GOGOSTART
300000000100100100200000300000000100100010001000,
500000000000000000000008000000000000000000100100,
1020111020300010,
2010003000111000,
2011100040111020,
1110200070000000,
08,
,
3300,
#GOGOEND
#END
COURSE:Normal
LEVEL:7
BALLOON:12,14,16,16
SCOREINIT:980
SCOREDIFF:325
#START
3000000011100000,
1000000011100000,
1122,
1122,
1122,
1122,
3030001110000000,
3030001110000000,
3030001110000000,
3030001110000000,
1122,
1122,
1122,
1122,
1111,
1000111010000020,
02101202,
30303001,
20021001,
20203003,
0303,
#GOGOSTART
3700,
00000800,
7,
08001000,
13,
3700,
08,
#GOGOEND
0000222000102030,
0000222000102030,
0000222000102030,
0000222000102030,
0000222000102030,
0000200011102000,
0333,
0120,
2220,
2122,
22,
#GOGOSTART
2120,
1000101110002000,
1000101110001000,
1010111050000000,
000000000000000000000000000000000008000000000000,
#GOGOEND
01,
01,
03,
01,
03,
01,
03,
01,
03,
#GOGOSTART
33,
500000000000000000000008000000000000000000000000,
00001200,
1010004000111000,
30003003,
07,
08,
,
3300,
#GOGOEND
#END
COURSE:Easy
LEVEL:4
BALLOON:10,12,14,16
SCOREINIT:790
SCOREDIFF:278
#START
3,
3,
1122,
1122,
1122,
1122,
3,
3,
3,
3,
1122,
1122,
1122,
1122,
1111,
11,
,
1110,
,
00003003,
0303,
#GOGOSTART
0700,
00000800,
7,
08001000,
13,
3900,
0080,
#GOGOEND
00100011,
00100011,
00100011,
00100011,
00100011,
00100011,
0111,
02,
2220,
2022,
22,
#GOGOSTART
2011,
2210,
1120,
1250,
000000000000000000000000000000000008000000000000,
#GOGOEND
,
33,
36,
000000000000000000000000000008000000000000000000,
36,
000000000000000000000000000008000000000000000000,
36,
000000000000000000000000000008000000000000000000,
33,
#GOGOSTART
33,
600000000000000000000008000000000000000000100000,
11001100,
11001100,
11001100,
11009000,
,
00008000,
3300,
#GOGOEND
#END