Files
2022-10-19 18:18:47 +02:00

313 lines
5.0 KiB
Plaintext
Raw Permalink Blame History

This file contains ambiguous Unicode characters
This file contains Unicode characters that might be confused with other characters. If you think that this is intentional, you can safely ignore this warning. Use the Escape button to reveal them.
//TJADB Project
TITLE:Nijiiro 2021 Second Kyuu
SUBTITLE:--Dareka no Shinzou ni Nareta Nara & Marisa Stole the Precious Thing & Todoroke! Taiko no Tatsujin
BPM:145
WAVE:Todoroke! Taiko no Tatsujin.ogg
DEMOSTART:19.515
COURSE:Dan
LEVEL:5
BALLOON:5,5,9,23,7,20,12,12
EXAM1:g,96,100,m
EXAM2:h,1526,1575,m
EXAM3:jb,50,25,l
#START
#NEXTSONG Dareka no Shinzou ni Nareta Nara,YurryCanon feat. GUMI,ボーカロイド,Dareka no Shinzou ni Nareta Nara.ogg,630,163
#DELAY 1.734
33,
3130,
33,
3130,
1112,
1211,
1122,
03,
10121012,
11221020,
10121012,
1010202010222020,
10121012,
11221020,
10121012,
500000000000000000000000000000000008000000000000,
10211020,
12112000,
10211020,
12112000,
10112020,
1140,
1020102010010010,
500000000000000000000008000000000000000000000000,
12211020,
12112020,
12211020,
12112020,
10112020,
1140,
1020102010020020,
500000000000000000000000000000000008000000000000,
1001001010200000,
1212,
1001001010200000,
1212,
1001001010200000,
1140,
12121122,
3330,
#GOGOSTART
10112020,
1011101010001010,
10112010,
1011101010001010,
10112020,
1011101010001010,
10112010,
3440,
70082020,
1011101010001010,
10112010,
1011101010001010,
10112020,
1011101010001010,
10112010,
10101011,
20212011,
1022202020001010,
10212011,
1022202010001010,
20212011,
1022202020001010,
10212010,
3440,
70082011,
1011101010002000,
6,
000000000000000000000008000000000000100000100000,
20212011,
1022202020002000,
6,
000000000000000000000008000000000000000000000000,
10112110,
10221220,
1011101010101010,
9008,
#GOGOEND
#NEXTSONG Marisa Stole the Precious Thing,IOSYS [ARM & Yuuno Yoshimi] feat. Karin Fujisaki/Touhou Project,ゲームミュージック,Marisa Stole the Precious Thing.ogg,380,120
#DELAY 0.183
#BPMCHANGE 170
1001001010001000,
1001001010101000,
1001001010001000,
1001001020101020,
1001001010101000,
1001001010101000,
1001001010101000,
400000300000400000300000600000000000000008000000,
11122211,
12221110,
11122211,
12221110,
11122211,
12221110,
10201120,
100000200000100000200000500000000000000008000000,
11211211,
21121120,
21121121,
12112110,
11211211,
21121120,
7,
08,
12020202,
02020202,
02020202,
02022112,
1001101010101000,
1001101010101000,
1001101010101000,
500000000000000000000000000000000000000008000000,
12121212,
12121212,
12121212,
100000200000100000200000500000000000000008000000,
12121212,
12121212,
12121212,
100000200000100000200000500000000000000008000000,
12221222,
12221222,
11121112,
11121112,
11221122,
22112211,
11221122,
600000000000000000000000000000000008000000100100,
#GOGOSTART
1000200010200011,
10201202,
10403304,
03304022,
10201212,
10011020,
10011011,
2010001010011010,
1000200010200011,
10201202,
10403304,
0010100020020020,
10011020,
10011022,
500000000000000000000000000000000000000000000008,
#GOGOEND
,
#GOGOSTART
3000300040040040,
500000000000000000000000000000000000000008000000,
4000400030030030,
500000000000000000000000000000000000000008000000,
1000100010020010,
0011101020002000,
4000400030040030,
,
3000300040040040,
500000000000000000000000000000000000000008000000,
4000400030030030,
500000000000000000000000000000000000000008000000,
1000100010020010,
0011101020002000,
10112000,
500000000000000000000000000000000000000000000008,
02020202,
1020102010111011,
#GOGOEND
1,
#NEXTSONG Todoroke! Taiko no Tatsujin,steμ × Yuuji Masubuchi feat. Takayoshi Tanimoto,ナムコオリジナル,Todoroke! Taiko no Tatsujin.ogg,510,130
#DELAY 1.675
#BPMCHANGE 154
3003003000000000,
,
3003003000002000,
,
3003003000202000,
3003003000202000,
3003003030030030,
3,
1011101010202000,
1011101010202000,
1011101110202000,
78,
#GOGOSTART
10111220,
10111220,
1011100020222000,
1011101110202000,
1011101010101000,
2022202020202000,
7,
08,
#GOGOEND
1011102020000000,
10022000,
1011102020000000,
10022000,
1011102020000000,
10022000,
9,
8,
1011101010002010,
12,
1011101010002010,
12,
10011020,
11100020,
1001101010002000,
1000100030011010,
1001101010002000,
11211020,
1001101010002000,
4002202040001000,
1001101010002000,
1122,
10002001,
1120,
10002001,
1,
3003003000000000,
3003003000000000,
333333,
3000000000000011,
#GOGOSTART
1001101010202011,
1001101010202011,
1022201110202001,
1002201010202000,
2022200010111000,
2022200010111000,
2002001010101000,
3344,
10111220,
10111220,
1011100020222000,
1011101110202000,
2022202020202000,
1011101010101000,
3006,
000000000000000000000000000008000000000000000000,
#GOGOEND
1001101020102000,
1001101020102000,
1001002010010020,
1,
2000000000000011,
1000000020000011,
1000000020000011,
1022201010202001,
1002201010202000,
2022200010111000,
2022200010111000,
2002001010101000,
3344,
#GOGOSTART
1000101010222000,
1000101010222000,
1011100020222000,
1011101110222000,
1011101020102000,
1011101020102000,
2022202020102000,
2022202020102000,
7008,
600000000000000000000000000000000000000008000000,
#GOGOEND
#END