295 lines
5.7 KiB
Plaintext
295 lines
5.7 KiB
Plaintext
//TJADB Project
|
||
TITLE:Nijiiro 2020 Sixth Dan
|
||
SUBTITLE:--Chouren ~Obsession~ & Metal Police & Tsubomi Yumemiru Rapsodia ~Alma no Michibiki~
|
||
BPM:116
|
||
WAVE:Tsubomi Yumemiru Rapsodia Alma no Michibiki.ogg
|
||
DEMOSTART:58.907
|
||
|
||
COURSE:Dan
|
||
LEVEL:9
|
||
BALLOON:3,4,5,6
|
||
EXAM1:g,100,100,m
|
||
EXAM2:jp,1530,1590,m
|
||
EXAM3:jb,18,9,l
|
||
|
||
|
||
#START
|
||
|
||
|
||
#NEXTSONG Chouren ~Obsession~,Zhan Xun Wei (Cai Feng Le Fang),ナムコオリジナル,Chouren ~Obsession~.ogg,560,148
|
||
EXAM4:r,40,48,m
|
||
|
||
|
||
#DELAY 2.403
|
||
#SCROLL 1.5
|
||
2010201022221111,//1
|
||
|
||
#GOGOSTART
|
||
100200200100202020100000000200100000101010200000,
|
||
100200200100202020100000000200100000101010200000,
|
||
1021202120212100,
|
||
1021202120212100,
|
||
100200200100202020100000000200100000101010200000,
|
||
100200200100202020100000000200100000101010200000,
|
||
1021202120212100,
|
||
100000201010200000201010200000201010200100000000,//9
|
||
|
||
#GOGOEND
|
||
500000000000000008000000100200000200000200100000,
|
||
3022202010102020,
|
||
1210202010102220,
|
||
11221221,
|
||
200200000222200000200200100000100100200000100000,
|
||
3022202010102020,
|
||
1012202010102000,
|
||
11221221,
|
||
100000100200200000100000100000100000200200202020,
|
||
100200000100200000100200000100200000222200000000,
|
||
200100000200100000200100000200100000111100000000,
|
||
3030002210102020,
|
||
3030002210102000,
|
||
100200000100200000100200000100200000222200000000,
|
||
200100000200100000200100000200100000111100000000,
|
||
22112211,
|
||
100100100100101010101010200200200200202020202020,//26
|
||
|
||
#GOGOSTART
|
||
1010122210101222,
|
||
1010222110102221,
|
||
1211211202102110,
|
||
1010202002102022,
|
||
1010211210102112,
|
||
1010122110101221,
|
||
1221122121212000,
|
||
1122102010201222,//34
|
||
|
||
#GOGOEND
|
||
1012201012201012,
|
||
2010122010122010,
|
||
3030110130301201,
|
||
3030220130302100,
|
||
2222122211121000,//39
|
||
|
||
#GOGOSTART
|
||
100200200100202020100000000200100000101010200000,
|
||
100200200100202020100000000200100000101010200000,
|
||
1021202120212100,
|
||
1021202120212100,
|
||
100200200100202020100000000200100000101010200000,
|
||
100200200100202020100000000200100000101010200000,
|
||
1021202120212100,
|
||
100000201010200000201010200000201010200100000000,//47
|
||
|
||
#GOGOEND
|
||
100000200100000200100000100000200100222200100100,
|
||
500000000000000000000000000000000000000000000008,
|
||
|
||
,
|
||
|
||
#NEXTSONG Metal Police,Ojima,ナムコオリジナル,Metal Police.ogg,520,133
|
||
EXAM4:r,15,18,m
|
||
|
||
|
||
#DELAY 1.621
|
||
#BPMCHANGE 176
|
||
#MEASURE 7/4
|
||
#SCROLL 1
|
||
11211121012121,
|
||
1010201010102010001020112020,
|
||
11211121011221,
|
||
1010201010102010001020112020,
|
||
11211121012121,
|
||
1010201010102010001020112020,
|
||
1010201010102010001010202111,
|
||
1010201010102010201120102020,
|
||
#MEASURE 3/4
|
||
110120,
|
||
110210,
|
||
110120,
|
||
210122,
|
||
110120,
|
||
110210,
|
||
110120,
|
||
101011202010,
|
||
101020112000,
|
||
101000201011,
|
||
210120,
|
||
101120102020,
|
||
101020112000,
|
||
101000201011,
|
||
201000112010,
|
||
230303,//24
|
||
|
||
#MEASURE 4/4
|
||
#GOGOSTART
|
||
2010202011221700,
|
||
8000201020201110,
|
||
21223040,
|
||
#MEASURE 3/4
|
||
001120102020,
|
||
#MEASURE 4/4
|
||
2010202011221700,
|
||
8000201020201110,
|
||
21221030,
|
||
#MEASURE 3/4
|
||
030122,
|
||
#MEASURE 4/4
|
||
2010202012212700,
|
||
80212211,
|
||
21223040,
|
||
#MEASURE 3/4
|
||
001120102020,
|
||
#MEASURE 4/4
|
||
2010202012212700,
|
||
8000201020201110,
|
||
2010202010004011,
|
||
#MEASURE 3/4
|
||
121112,//40
|
||
|
||
#GOGOEND
|
||
#MEASURE 7/4
|
||
1010202010102021101020201122,
|
||
1010202010102021101020201122,
|
||
1040304030403021104030401212,
|
||
1040304030403021104030401212,
|
||
#MEASURE 5/4
|
||
1010120222,
|
||
1010120211,
|
||
1010132322,
|
||
100000100000200100202010102010,
|
||
1121121221,
|
||
4121121222,
|
||
30102010102010202011,
|
||
200000100000200000100100100100200000200020001000100020001000,//52
|
||
|
||
#GOGOSTART
|
||
#MEASURE 7/4
|
||
1010201010102010001120102010,
|
||
1010201010102010001011122212,
|
||
1010201010102010001022212121,
|
||
1010201010102010001122112121,
|
||
2010401121104010401040102211,
|
||
2010401121104010401021112010,
|
||
2111201121104010401120102111,
|
||
2010401021112020121210201020,//60
|
||
|
||
#GOGOEND
|
||
#MEASURE 3/4
|
||
302303,
|
||
3,
|
||
|
||
|
||
#NEXTSONG Tsubomi Yumemiru Rapsodia ~Alma no Michibiki~,Sir Hirokawa feat. Maaya Uchida/THE iDOLM@STER ONE FOR ALL,ゲームミュージック,Tsubomi Yumemiru Rapsodia ~Alma no Michibiki~.ogg,390,100
|
||
EXAM4:r,4,5,m
|
||
|
||
|
||
#DELAY 4.134
|
||
#BPMCHANGE 184
|
||
#MEASURE 4/4
|
||
00000140,//1
|
||
|
||
#GOGOSTART
|
||
1010222010102000,
|
||
1010222010102000,
|
||
1010222010102000,
|
||
1022201022102000,
|
||
1010222010102000,
|
||
1010222010102000,
|
||
1010222010102000,
|
||
1022201022102020,//9
|
||
|
||
#GOGOEND
|
||
10221122,
|
||
02212110,
|
||
33034043,
|
||
0011102220101022,
|
||
1020202200102010,
|
||
0010002020102220,
|
||
0000202220100010,
|
||
0000201000102022,
|
||
1020202200102010,
|
||
0010202220102220,
|
||
0000101022200010,
|
||
0011202220222022,
|
||
1020202200102010,
|
||
0010222010102220,
|
||
0000101022200010,
|
||
0010201000222020,
|
||
1010222010102020,
|
||
1010222010102020,
|
||
1022201020111020,
|
||
1110201022201000,
|
||
10210121,
|
||
0011101040004000,
|
||
10210121,
|
||
0011101040004000,
|
||
10212021,
|
||
21012020,
|
||
12012010,
|
||
1021021022102222,
|
||
1010112000102000,
|
||
1010221000102000,
|
||
3003003040040040,
|
||
3003004000000000,
|
||
0000000000112022,//42
|
||
|
||
#GOGOSTART
|
||
1010111010102010,
|
||
0011202010102220,
|
||
1022201022201010,
|
||
2022102020221020,
|
||
1011201011102010,
|
||
1011201000102011,
|
||
1022201022201022,
|
||
1022102010221000,
|
||
1011101110111011,
|
||
2011201120112000,
|
||
1011101110111011,
|
||
2011201120112000,
|
||
1011201011102011,
|
||
1011201120112000,
|
||
1022201022201010,
|
||
0020101122221111,
|
||
1010111010102010,
|
||
0011202010102220,
|
||
1022201022201010,
|
||
2022102020221020,
|
||
1011201011102010,
|
||
1011201000102011,
|
||
1022201022201022,
|
||
1022112211222022,
|
||
1011201011112010,
|
||
2011201120112020,
|
||
1011201011112010,
|
||
2011201120112000,
|
||
1011101110102011,
|
||
1011201120102011,
|
||
1022201022201010,
|
||
0000002220002020,//74
|
||
|
||
#GOGOEND
|
||
,
|
||
00000140,//76
|
||
|
||
#GOGOSTART
|
||
1010111110102011,
|
||
1010111110102011,
|
||
1010111110102011,
|
||
1022201022112000,
|
||
1010111110102011,
|
||
1010111110102011,
|
||
1010111110102011,
|
||
1022201022112020,//84
|
||
|
||
#GOGOEND
|
||
1022201022201022,
|
||
200000500000000008000000100000001000000010000000,
|
||
1111222211112222,
|
||
1011200010112000,
|
||
1022201000000000,
|
||
|
||
|
||
#END
|
||
|
||
|