Files
2022-10-19 18:18:47 +02:00

412 lines
6.3 KiB
Plaintext
Raw Permalink Blame History

This file contains ambiguous Unicode characters
This file contains Unicode characters that might be confused with other characters. If you think that this is intentional, you can safely ignore this warning. Use the Escape button to reveal them.
//TJADB Project
TITLE:Nijiiro 2020 Seventh Dan
SUBTITLE:--Pixel Galaxy & Trust Game & Venomous
BPM:300
WAVE:Venomous.ogg
DEMOSTART:9.875
COURSE:Dan
LEVEL:9
BALLOON:3,4,5,6,7,8,4
EXAM1:g,100,100,m
EXAM2:jp,1790,1895,m
EXAM3:jb,16,8,l
#START
#NEXTSONG Pixel Galaxy,Snail’s House,バラエティ,Pixel Galaxy.ogg,420,108
EXAM4:r,0,0,m
#DELAY 1.704
#MEASURE 8/4
#SCROLL 0.5
10012000,
01012120,
10012000,
01012120,
10012000,
01012120,
10012000,
#BPMCHANGE 302
0010001020210210,
#GOGOSTART
#BPMCHANGE 300
1022201020002020,
00001000000000112000100020000000,
1022201020002020,
00001000000000112000100020000000,
1022201020002020,
00001000000000112000100020000000,
1022201020002020,
00001000000000112000201000102000,
1002022010202200,
2020220020202200,
1022022010202222,
1022102010202222,
12212212,
22222222,
1222221222221222,
1202021010004000,
#GOGOEND
3000001020201220,
00003000000000112000201000102000,
3000001020201220,
00003000000000112000201000102000,
3000001020201220,
00003000000000112000201000102000,
30030030,
0012102010210120,
3000001020201220,
00003000000000112000201000102000,
3020201020201220,
00003000000000112000201000102000,
32232232,
00003000000020112000201000102000,
32230230,
20002010002010112000000040000000,
1002022020202200,
2020220020020220,
1002022022102020,
2022102020202210,
1002022020202200,
2020220010020220,
1002102010221020,
1002202020202222,
#GOGOSTART
1001202210201222,
1020120210201220,
1020202210201022,
10002000200020201010200022101020,
0010202210201222,
1020120210201220,
1020202210201022,
10002000200020201020102210201000,
#GOGOEND
1021012010120210,
1021012010120210,
1021012210120210,
1021012210120210,
10002010001020201000201000221020,
10002010001020201000201000221020,
1222101222101222,
1012221210004000,
#GOGOSTART
3000001020201220,
00003000101020112000201000102000,
3020201020201220,
00003000101020112000201000102000,
3020201020201220,
00003000101020112000201000102000,
32230230,
00001020100020112000201000102000,
3000001020201220,
00003000101020112000201000102000,
3020201020201220,
00003000101020112000201000102000,
32232232,
00003000000020112000200020002000,
32230230,
20002010002010112000000040000000,
#GOGOEND
3002022020202200,
2020220020220220,
1022202010222020,
1020022010202020,
12202202,
02022222,
02220220,
0000002021020210,
,
#NEXTSONG Trust Game,Masayuki Hasuo feat. SaChi a.k.a. Harineko,ナムコオリジナル,Trust Game.ogg,500,128
EXAM4:r,44,52,m
#DELAY 1.986
#BPMCHANGE 192
#MEASURE 3/4
#SCROLL 1
,
,
,
,
121212,
#MEASURE 4/4
1020102222211111,
#MEASURE 3/4
200020021020,
121202,
100020021020,
121202,
100020021020,
102010201220,
100020021020,
102011202020,
122101,
212121,
221202,
001022121000,
122101,
212140,
102102,
002022121000,
122101,
212121,
221202,
001022121000,
122101,
212122,
102102,
121022,
122,
100022112020,
122,
100022121020,
122,
100022112020,
122,
100202,
102102,
100000111100100200,
102210201020,
100000202020200000100000000200000000,
100200101200,
102102101200,
102102101220,
111120001022,//46
#MEASURE 4/4
#GOGOSTART
1010202211102020,
1010202112102020,
1010202211105000,
000000000000000000000008000000000000200000000000,
1010202211102020,
1010202112102020,
11203030,
4000400040111111,
1010202212102020,
1010202121102020,
1010202212105000,
000000000000000000000008000000000000100000200000,
10210210,
2010002012112000,
11211211,
2110101020112222,//62
#MEASURE 3/4
#GOGOEND
100020100022,
102021,
122102,
102100,
102110202110,
200021202120,
101210201210,
201211200000,
101201202,
102102102,
101201202,
102102102,
101211202,
102112102,
101211202,
100202,
102102,
100020111020,
101120201120,
102211221120,
112020101020,
100020102022,
101210111220,
400022222220,//86
#MEASURE 4/4
#GOGOSTART
1010202211102020,
1010202112102020,
1010202211104000,
600000000000000000000008000000000000200000000000,
1010202211102020,
1010202112102020,
11203040,
3000300040111111,
1010202212102020,
1010202121102020,
1010202212104000,
600000000000000000000008000000000000100000200000,
10210210,
2010002012112000,
#MEASURE 3/4
112112,
111020111020,
111120112120,
111120121210,//104
#GOGOEND
04,
,
#NEXTSONG Venomous,Rio Hamamoto/RIDGE RACER 3D,ゲームミュージック,Venomous.ogg,430,90
EXAM4:r,33,37,m
#DELAY 1.181
#BPMCHANGE 224
#BARLINEOFF
#MEASURE 1/4
03,
#BARLINEON
#MEASURE 4/4
02112112,
11211221,
02112112,
11221113,
02112112,
11211221,
02112111,
21030303,
02112112,
11211221,
02112112,
11221111,
02112112,
11211221,
02112111,
23030333,
20120121,
20120122,
20120121,
200000100200201010201010,
11211212,
11211212,
11211212,
1010201110111011,
#BPMCHANGE 220.53
#SCROLL 1.02
11201201,
#BPMCHANGE 223.27
#SCROLL 1
0011201010102010,
#BPMCHANGE 228.31
#SCROLL 0.98
11201201,
#BPMCHANGE 224
#SCROLL 1
2110211021102110,
11211201,
0011201010102010,
11211203,
00300300,
1010201010111010,
1010201010111010,
1010201010111010,
0000101020102110,
1010201010111010,
1010201010111010,
1010201010201120,
33430000,
20120120,
20120120,
20120120,
200000100200101010201010,
21121121,
21121121,
21121121,
2010112011101120,
#BPMCHANGE 224.23
20202222,
#BPMCHANGE 223.27
02200000,
#BPMCHANGE 221.06
#SCROLL 1.01
20202222,
#BPMCHANGE 227.54
#SCROLL 0.98
02202222,
#BPMCHANGE 224
#SCROLL 1
20202222,
0020200022202220,
2000200020201110,
10222222,
1020001020222020,
12012102,
1020001020222020,
12012102,
1020001020222020,
12012102,
1020001020222030,
03340333,
10102111,
12102111,
10102111,
12102222,
10102111,
1020100021101110,
10102111,
,
1708,
1708,
1708,
02012212,
3708,
1708,
1708,
12012122,//81
#GOGOSTART
1020112011201020,
1020112022201020,
1020112011201020,
1020211021101020,
1020112011201020,
1020112022201020,
1020112011202110,//88
#GOGOEND
,//89
#GOGOSTART
1010201000002022,
1020001011101110,
1010201000002022,
1000102011101110,
1010201000002022,
1020001011101110,
11210020,
7000800022102210,
2010201020112010,
2010201011101110,
2010201020112010,
2010201110112010,
2010201020112010,
2010201011101110,
40330040,
33003000,//105
#GOGOEND
10101111,
01102110,
10101111,
0010100020111011,
21101111,
01102110,
10101113,
#END