Files
2022-10-19 18:18:47 +02:00

369 lines
6.7 KiB
Plaintext

//TJADB Project
TITLE:Nijiiro 2020 Ninth Dan
SUBTITLE:--Youthful Coaster & Comona & Clotho
BPM:210
WAVE:Clotho.ogg
DEMOSTART:60.600
COURSE:Dan
LEVEL:9
BALLOON:22,6,4,5,10
EXAM1:g,100,100,m
EXAM2:jp,2260,2330,m
EXAM3:jb,12,6,l
#START
#NEXTSONG Youthful Coaster,U-ske feat. Natsu Kazura,ナムコオリジナル,Youthful Coaster.ogg,420,105
EXAM4:r,44,51,m
#DELAY 1.311
10010010,
0010002220202010,
00100101,
0010102220221011,
1000101220201011,
2010201110100050,
000000000000000000000000000000000000000000000008,
0000000000111000,
1020102220001020,
0020102220101000,
1020102220201020,
0020102210001000,
2210300010201020,
0020102222102210,
1111201111201111,
2011111040400000,
20000001,
,
20000002,
00020003,
0121,
2000100020001011,
200000200100100000200000200000101010100000400000,
0011100020112000,
1011201010002010,
0011201011201120,
02122012,
000000200200100000200000200200100200200000500008,
000000000000400000000000200200200000200000500008,
0000300011112010,
2000201120001022,
1000101120201000,
300300222200000200300300,
000200000300000222100000,
300300222200000200300300,
000100000400000111200000,
400400111100000200300300,
000400000300000222100000,
1000101110001011,
2000101220001022,
2011201220222030,
0330000//42
#GOGOSTART
4,
0022101211201040,
0022201110201022,
1000101222102010,
0010102220201011,
1011102210111022,
1011221000221000,
1222201222201222,
2012222030300040,
0022101211201040,
0022201110102000,
30430303,
02221010,
2000111020111020,
0011100011112210,
2000111020111020,
0223,//58
#GOGOEND
111111200300,
111112200300,
111122200300,
111222200000,
112222200300,
122222200300,
4000102220201020,
0020122012201000,
3022202020200030,
000200000222200200200300,
00022223,
02020220,
3000002220202030,
000200200200200222200300,
0020202220202030,
000000000000100100100000200200100000600008000000,
1010101110101011,
2010101120101012,
2012202220222030,
0030302222222210,
00//79-1
#GOGOSTART
40000//79-2
#GOGOEND
1,
0000//80
#GOGOSTART
400022221000,
10110102,
0010002000221011,
1011102210121022,
1011221000221000,
1222221222221222,
2212222030300040,
0022101211201040,
0022201110102000,
30430303,
02221010,
2000111020111020,
0011100011112210,
2000221020112030,
0333,//94
#GOGOEND
7,
0800,
1020102220201020,
0020002110101020,
0300,
#NEXTSONG Comona,Tetsukazu Nakanishi/ACE COMBAT 04 SHATTERED SKIES,ゲームミュージック,Comona.ogg,440,100
EXAM4:r,207,243,m
#DELAY 2.023
#BPMCHANGE 138
#MEASURE 1/4
#BARLINEOFF
2221,
#MEASURE 4/4
#BARLINEON
0000200200001005,
000000000000000000000000000008000000100000000300,
0000200200001005,
000000000000008000000100000200200200100000000300,
0000200200001005,
000000000000000000000000000008000000100000000300,
0000200200001005,
000000000000008000000300000101010100100100000300,//9
#GOGOSTART
0010201100102011,
0010201100104003,
0010201100102005,
000000000000008000000500000000000000008000000300,
0010201100102011,
0010201100104003,
0010201100102005,
000000000000008000000500000000000000008000000100,//17
#GOGOEND
0010201010102011,
0010201010102011,
0010201010102011,
0010201202101111,
0010201010102011,
0010201010102011,
0010201010102011,
0110201202101111,
0010210110210101,
0010210110210201,
0110210110210101,
0010201202101111,
0010210110210101,
0010210110210201,
0110210110210101,
0110201202103003,//33
#GOGOSTART
0111112202211111,
0300300000002222,
0111112202211111,
000300000000300000000000101010100100200200200200,
0111112202211111,
0300301120121122,
0111112202211111,
0000300300003003,
0202,
0000200000002001,
0000011122112103,//44
#GOGOEND
0500,
000000000000000000000000000008000000300000000500,
000000000000000000000008000000100000500000000000,
000000000008000000100100700000000000000000800000,
0000200200001001,
0011122112221103,
0010200122101003,
000000100000100000000300000101010100100100000300,//52
#GOGOSTART
0010210110210211,
0110201110102203,
000000101010200000101010200000101010200000100100,
2112111270080000,
000221112221112211122221,
101010101050000000000000000000000000008000000300,
0011112211222112,
700000000000000800000500000000000000008000000300,//60
#GOGOEND
0010201010102011,
0010201010102011,
0010201010102011,
0010201202101111,
0010201010102011,
0010201010102011,
0010201010102011,
0110201202101111,
0010210110210101,
0010210110210201,
0110210110210101,
0010201202101111,
0010210110210111,
0010210110210211,
0110210110210111,
2011201120112003,//76
#GOGOSTART
0111112202211111,
000300000000600000000000000008000000200200200200,
0111112202211111,
000300000000300000000000101010100100200200200200,
0111112202211111,
0300301120121122,
0111112202211111,
000000000000300000000300000000100100101020101020,
111211121112111211121112,
1070000000008003,
0000011122112103,
,
#GOGOEND
#NEXTSONG Clotho,Tatsh a.k.a. Zeami feat. Yu Oda,ナムコオリジナル,Clotho.ogg,350,88
EXAM4:r,6,8,m
#DELAY 1.573
#BPMCHANGE 185
2220222022202220,
2220222022202220,
2220222022202220,
2220222022202220,
1210221012102210,
1210221012102210,
1210221012102210,
4011111111111120,//8
#GOGOSTART
1110201111202011,
1110201111201022,
1110201111202011,
1110201122111000,
1110201111202011,
1110201111201022,
1110201111202011,
1110201122111000,
1120102210201122,
1000001022222222,//18
#GOGOEND
1010200010102011,
1010201010102012,
1010200010102011,
1010201010102012,
1010200010102011,
1010201010102012,
1010202210102211,
1040000011101111,
1010201110102011,
1010201110102012,
1010201110102011,
1010201110201122,
1020102210201120,
1020102210201121,
1020102210201120,
1010200021212121,
20211020,
1010201011102220,
10211020,
1010201011102211,
10211020,
1020201011102220,
1010201011102010,
1020201011202022,
1020102210201121,
1020102210201122,
1110111011111111,
1111111100000000,//46
#GOGOSTART
1021102211011020,
1021102211011020,
1021102211211020,
1021102211211020,
1021102211011020,
1021102211011020,
1021102211211020,
1021100011221121,
1020112010221020,
1020112011211020,
1020112010221020,
1020112011211020,
1021102010211120,
1021102011211120,
1021102010211120,
1021102011211000,
1111102011211022,
1121102111211120,
1111102011211022,
1121102111211120,
1111102011211022,
1120112011201121,
1010021110100211,
1021101012221210,//70
#GOGOEND
30230221,
3000021000102010,
30230221,
3000203000102011,
12221222,
100200200200200200200200500000000000000008000000,//76
#GOGOSTART
1122121211221212,
1122112211211211,
2211221122112211,
1122112211211211,
2022112110112211,
1011201110112110,
2211211011221110,
1122121211221212,
1122112212212212,
2212121122121211,
1122112212212212,
1222121212221212,//88
#GOGOEND
1,
#END