Files
2022-10-19 18:18:47 +02:00

596 lines
10 KiB
Plaintext

//TJADB Project
TITLE:Nijiiro 2020 Tatsujin
SUBTITLE:--Mada Saitama 2000 & Yuugen no Ran & Vixtory
BPM:280
WAVE:Vixtory.ogg
DEMOSTART:69.809
COURSE:Dan
LEVEL:10
BALLOON:12,15
EXAM1:g,100,100,m
EXAM2:jg,8,1,l
EXAM3:jb,3,1,l
#START
#NEXTSONG Mada Saitama 2000,Linda AI-CUE,ナムコオリジナル,Mada Saitama 2000.ogg,350,88
EXAM4:r,13,14,m
#DELAY 1.895
#MEASURE 8/4
#SCROLL 0.5
1101101100220011,
200000000000100000000000200200200200100000200000100000000000000000000000200020002000200000000000,
20100020100020100000222210002000,
100100200000100200101010200000100200101010200000,
1101101100220011,
200000000000100000000000200200200200100000200000100000000000000000000000200020002000200000000000,
20200202020022220022020202020200,
02020202020022020200222200000000,
30000000300000001000121010002020,
100000000000200000100000000000200200100000200000100000000000200000000000200020002000200000100000,
10000000300000001010202011112222,
100100200000100200101010200000100200101010200000,
30000000300010201000121010002020,
100000000000200000100000000000200200100000200000100000000000200000000000200020002000200000100000,
10000000101020201010202011112222,
100100200000100200101010200000100200101010200000,
30000000111110201000121010002020,
100000000000200000100000000000200000100000200200100000000000200000000000200020002000200000100000,
10000000111110201000121010102020,
100100200000100200101010200000100200101010200000,
30000000111110201000121010002020,
100000000000200000100000000000200200100000000000000000000000200000000000200020002000200000100000,
10000000202010101111201111201111,
200000000200000000200000101010100200000000100100,
21121121,
10002000100020000000200022220000,
1000001000222010,
00002000002000002000111020001010,
21121121,
10002000100020000000200022220000,
1000001000222010,
200000000200000000200000101010101010200000000000,
#GOGOSTART
1111000000222010,
100200100000100010001000100000000000200000000000,
1111000010222010,
100200100000100200100000100010001000100000002000,
10101010202020201010121020202020,
10101010202020201010121020202020,
10101210202020201010121020202020,
100000100000100200100000200000200000200000200000
#SCROLL 2.73
500000000000000000000008000000000000000000000000,
#GOGOEND
#SCROLL 0.5
20200202020022220022020202020200,
02020202020022020200222200000000,
20022220220202020200222002020202,
22200022202200220200220020200220,
00002202002200202022020222020000,
#MEASURE 4/4
#SCROLL 1
111222,
#SECTION
#BRANCHSTART p,80,80
#N
100000001000000010000000100100100100100100100100,
#GOGOSTART
10201120,
1011201020101120,
20102212,
1020112110102000,
10201121,
2010201011102010,
2022102020102010,
1012221210201020,
1020102010122010,
1202102010221010,
2210201012201022,
1022102010122010,
1202102010221010,
2210120210010011,
1011102010201012,
2010120210201022,
1020102010201011,
1020102001110111,
0111102010200012,
0101101010201111,
1020301110201020,
01121101,
2110001011101020,
1001101010100011,
#E
,
#GOGOSTART
,
,
,
,
,
,
,
,
,
,
,
,
,
,
,
,
,
,
,
,
,
,
,
,
#M
100000001000000010000000100100100100100100100100,
#GOGOSTART
1000102010021010,
1020102210101012,
1002021010201010,
1022102010121010,
1020102010021010,
1020102210101012,
1002021010201010,
1202102011112111,
1000102010021010,
1020102210101012,
1002021010201010,
1022102010121010,
1020102010021010,
1020102210101012,
1002021010201010,
1202102211112111,
1020102012021010,
1020102210101012,
1002021010221010,
1022102012121222,
1020102012021010,
1020102210101012,
1002021010221010,
1022122211112111,
#SECTION
#BRANCHSTART p,-1,-1
#N
,
,
,
,
,
,
#GOGOEND
#MEASURE 8/4
,
#GOGOSTART
,
,
,
,
#MEASURE 4/4
,
,
,
,
,
,
,
,
#GOGOEND
,
#E
,
,
,
,
,
,
#GOGOEND
#MEASURE 8/4
,
#GOGOSTART
,
,
,
,
#MEASURE 4/4
,
,
,
,
,
,
,
,
#GOGOEND
,
#M
1020102012021010,
1020102210101012,
1002021010221010,
1022102012121221,
01010101,
0010001020220222,
#GOGOEND
#MEASURE 8/4
#SCROLL 2.73
500000000000000000000008000000000000000000000000
#SCROLL 0.5
100010001000100010001000200000000000000000000000,
#GOGOSTART
#MEASURE 8/4
100000100100100000000200200200200000200010001000,
100111222111,
100000100100100000000200200200200000200010001000,
100111222111,
#MEASURE 4/4
#SCROLL 1
1020102012021010,
1020102210101012,
1012221010221010,
1022102012121222,
1020102012021012,
1222122212121210,
30030030,
0010200011211211,
#GOGOEND
2200000000000000,
#BRANCHEND
#NEXTSONG Yuugen no Ran,Tatsh a.k.a. Zeami,ナムコオリジナル,Yuugen no Ran.ogg,290,60
EXAM4:r,25,27,m
#DELAY 1.816
#BPMCHANGE 160
111100111100,
111100111222,
111100111100,
111100221221,
111100111100,
111100111222,
111100111100,
111100221212,
211121212121,
212212212121,
,
#BPMCHANGE 300
2010201020110020,
2020201020201120,
2010201020110020,
2020102020101120,
21212112,
2010102010121222,
1020102010222020,
1020112121201122,
1020102010221120,
1020102010221220,
1020102011221122,
1020102010222222,
1020102010221120,
1020102010221220,
1020102011221122,
1020102010222222,
1020102010201022,
1111222211112222,
1122112212222222,
1000100000101222,
11102220,
1010100020102012,
11102220,
1010100012221222,
11102220,
1010100021212122,
11102220,
1010100012221122,
22112211,
2222111122221111,
2211221122221111,
12,
10222020,
1121,
10222020,
12,
10222020,
1121,
22122020,
1121,
10222020,
21112222,
21112211,
22222222,
#GOGOSTART
11221122,
11221222,
11221122,
1212121210202020,
11221122,
11221222,
12212112,
1020102021022122,
11221122,
11221222,
11221122,
1212121210202020,
11221122,
11221222,
12212112,
1020102021022122,
#GOGOEND
1022222222222222,
1111111111111111,
2222222211111111,
2222222211111111,
2222111122221111,
2121212121212121,
#GOGOSTART
21212212,
21212122,
21212212,
2010211101112120,
21212212,
21211212,
22121212,
2020112201211120,
22121212,
11222121,
22121212,
1010211101112120,
21212212,
12121221,
21221212,
#MEASURE 6/4
111122112020202022102210,
#MEASURE 4/4
1120221022102212,
2122121210001000,
10101022,
10121012,
1121212110001211,
2112100021112111,
2112112112112112,
1212121212121212,
#GOGOEND
10100300,
20200400,
10100300,
20200400,
10100300,
20200400,
10100300,
2020102020102222,
22112211,
22112112,
22112211,
2020101012222222,
22112211,
22112121,
22112211,
2020101022221122,
22112112,
1022201020201022,
1111111122222222,
#GOGOSTART
11221211,
12112111,
22121211,
21121121,
21121121,
12121212,
12102112,
10211021,
1000211110201020,
1020102010201021,
1110201010201020,
1010201010222222,
11300113,
0010101021212121,
11300103,
2020202010222222,
11300113,
0010101021212121,
11300103,
1111112121212121,
5,
000000000000000000000000000000000000000000000008,
#GOGOEND
#NEXTSONG Vixtory,CHUBAY,ナムコオリジナル,Vixtory.ogg,800,0
EXAM4:r,124,131,m
#DELAY 1.168
#BPMCHANGE 243
#MEASURE 3/4
102220,
212220,
212220,
212220,
202220,
212220,
212220,
201120112011,
#MEASURE 4/4
100101122121,
2211112222112111,
221211122112,
111010211120102010202020,
3000000011111111,
111111111111200200200200,
300000111111,
3000000011111111,
2000300020120120,
1012112011012210,
2102102110102210,
200100100100200100100100200010001000200010001000,
2000300020120120,
1110221012112010,
200100000200100000200100101010100000101010100000,
2021201012101000,
2000300022212121,
2211221211121112,
2102112110112010,
2012102011112010,
2000300020120120,
1110221012112010,
2010211021102110,
200200100200200100100200500000000008000000000000,
#SCROLL 0.67
3000111120111010,
1020101010002222,
1010111120102020,
2110002220102210,
3000111120111110,
1020101010002222,
1000111120101210,
211100100222200100222100,
#MEASURE 5/4
70008,
#MEASURE 3/4
#SCROLL 1
101120201020,
201022112120,
100111200200100200,
200000100000200000200000200200101010,
101120201020,
201022112120,
#MEASURE 6/4
300003000030
000300002220,
#MEASURE 3/4
101120201020,
201022112120,
100111200200100200,
200000100000200000200000200200101010,
101120201020,
201022112120,
101210101210,
#MEASURE 4/4
1111201210101110,
30102222,
02020202,
20020020,
02222122,
10102222,
02020202,
10202221,
0000101020222020,
30101210,
3000112010001000,
300000111200300000111200,
300000111200300000111100,
4000111211122221,
2221111222111222,
100100100100101010101010,
100100100100100100100100101010101010101010102020,
,
2000000011112222,
#GOGOSTART
1011202011102010,
2012112212211020,
2010122022112111,
200000101010100000200000000000100000100100100100,
100000100100200000100000200000100200101010200000,
1011201011112010,
200000100200101010200000100000100000200200100000,
400111100400111100400000,
300000101010200000200000100100100200200000100000,
2012112012112020,
411111411111,
411111411221,
0000301120121122,
1012201011112210,
2011201120112011,
200111200111200111200111,
2111211121112111,
201010201010221111221111,
#GOGOEND
2000100020020050,
000000000000000000000000000000000000000008000000,
200000000200000000500000000000000000000008000000,
21122112,
0000100020020050,
000000000000000000000000000000000000000008000000,
200000000200000000500000000000000000000008000000,
200200211211,
300111201101,
101001200111,
101201101001,
221201211211,
300200201207,
0008,
101101201202,
100010101110201120201220,
2,
2,
30220121,
2012012012211020,
2110302022104010,
200000101010100000400000000000100100101010101010,
#GOGOSTART
100000100200200000100000200000100200101010200000,
1012201011122011,
200000100200101010200000100200100100200200100000,
400111100400111100400100,
300000101010200000200000100100100200200200100000,
2012112012112120,
411112411122,
411222421221,
0000301220121122,
1111211122112211,
101010201110101010201110,
#GOGOEND
222212100100,
#GOGOSTART
3000100020020050,
000000000000000000000000000000000000000008000000,
200000000200000000500000000000000000000008000000,
300300211211,
3000100020020050,
000000000000000000000000000000000000000008000000,
200000000200000000500000000000000000000008000000,
2112112122122122,
#GOGOEND
100100200200200100100200100202020100200200100200,
202010100200100200200100101010200200100100100200,
00404430,
30346084,
#END