Files
ESE/09 Namco Original/Chicken Game/Chicken Game.tja
T
2023-01-17 00:45:18 -05:00

2020 lines
19 KiB
Plaintext

//TJADB Project
TITLE:Chicken Game
TITLEJA:チキンレース
SUBTITLE:--Naka Maoto
SUBTITLEJA:ナカマオト
BPM:235
WAVE:Chicken Game.ogg
OFFSET:-2.109
DEMOSTART:42.958
COURSE:Edit
LEVEL:10
BALLOON:5,5,5,5,5,5,5,5,11
SCOREINIT:450
SCOREDIFF:100
#START
//branch to avoid errors
#GOGOSTART
#BARLINEOFF
#BRANCHSTART p,0,0
#N
,
,
,
,
,
,
,
,
#E
,
,
,
,
,
,
,
,
#M
1
#GOGOEND
000000000000000,
1,
11,
11,
#GOGOSTART
1
#GOGOEND
000100010001000,
1111,
#SECTION
500000000000000000000000000008000000
#SCROLL 0.5
300000000000,
#GOGOSTART
#BARLINEON
#SCROLL 1
0
#GOGOEND
0,
#BRANCHSTART p,0,1
#N
,
,
,
,
,
,
,
,
#E
5,
000000000000000000000000000008000000200000000000,
5,
000000000000000000000008000000000000100000000000,
5,
000000000000000000000000000008000000200000000000,
#SECTION
500000000000000000000000000080000000
#SCROLL 0.5
300000000000,
#SCROLL 1
,
#M
1110202011102010,
1110201110102020,
1110202011102011,
1020111020201000,
1110202011102020,
1110202011102020,
#SECTION
500000000000000000000000000008000000
#SCROLL 0.5
300000000000,
#SCROLL 1
,
#BRANCHSTART p,0,1
#N
,
,
,
,
,
,
,
,
#E
500008000000500008000000500000000008000000500008,
000000500008000000500000000000000000000008000000,
500008000000500008000000500000000008000000500008,
000000500008000000500000000000000000000008000000,
500008000000500008000000500000000008000000500008,
000000500008000000500000000000000000000008000000,
#SECTION
500000000000000000000000000008000000
#SCROLL 0.5
300000000000,
#SCROLL 1
,
#M
1120112010112011,
2011202011101000,
2210221020221022,
1022102011101000,
1120112010112011,
2011202011101000,
#SECTION
500000000000000000000000000008000000
#SCROLL 0.5
300000000000,
#SCROLL 1
,
#BRANCHSTART p,0,1
#N
,
,
,
,
,
,
,
,
#E
5,
,
,
000000000000000000000000000000000000000008000000,
5,
000000000000000000000000000000000000000008000000,
#SECTION
500000000000000000000000000008000000
#SCROLL 0.5
300000000000,
#SCROLL 1
,
#M
2211201120201120,
2011202011201110,
2011201020112010,
2011201110202000,
2211201120201120,
2011202011201110,
#SECTION
500000000000000000000000000008000000
#SCROLL 0.5
300000000000,
#SCROLL 1
,
#BRANCHSTART p,0,1
#N
,
,
,
,
,
,
,
,
#E
5,
,
,
,
,
000000000000000000000000000000000000000008000000,
#SECTION
500000000000000000000000000008000000
#SCROLL 0.5
300000000000,
#SCROLL 1
,
#M
1111101110101110,
1011101011101110,
2022202020222020,
2022202220202000,
1111101110101110,
1011101011101110,
#SECTION
500000000000000000000000000008000000
#SCROLL 0.5
300000000000,
#SCROLL 1
,
#GOGOSTART
#BRANCHSTART p,0,1
#N
,
,
,
,
,
,
,
,
#E
500000000008000000500000000008000000500008000000,
500000000008000000500000000008000000100000000000,
500000000008000000500000000008000000500008000000,
500000000008000000500000000008000000200000000000,
500000000008000000500000000008000000500008000000,
500000000008000000500000000008000000100000000000,
#SECTION
500000000000000000000000000008000000
#SCROLL 0.5
300000000000,
#SCROLL 1
,
#M
1012201010201212,
1012201020201212,
1012201010201212,
1012201110202000,
1012201010201212,
1012201020201212,
#SECTION
500000000000000000000000000008000000
#SCROLL 0.5
300000000000,
#SCROLL 1
,
#BRANCHSTART p,0,1
#N
,
,
,
,
,
,
,
,
#E
500000000008000000500000000008000000500008000000,
500000000008000000500000000008000000500008000000,
500000000008000000500000000008000000500008000000,
500000000008000000500000000008000000500008000000,
500000000008000000500000000008000000500008000000,
500000000008000000500000000008000000500008000000,
#SECTION
500000000000000000000000000008000000
#SCROLL 0.5
300000000000,
#SCROLL 1
,
#M
1012201210201212,
1012201220201212,
1012201210201212,
1012201210202000,
1012201210201212,
1012201220201212,
#SECTION
500000000000000000000000000008000000
#SCROLL 0.5
300000000000,
#SCROLL 1
,
#GOGOEND
#BRANCHSTART p,0,1
#N
,
,
,
,
,
,
,
,
,
,
,
,
,
,
,
,
#E
508000000000000000000000000000000000000000000000,
508000000000000000000000000000000000000000000000,
#GOGOSTART
608
#GOGOEND
000000000000000000000000000000000000000000000,
508000000000000000000000000000000000000000000000,
#GOGOSTART
608
#GOGOEND
000000000000000000000000000000000000000000000,
508000000000000000000000000000000000000000000000,
#GOGOSTART
608
#GOGOEND
000000000000000000000000000000000000000000000,
508000000000000000000000000000000000000000000000,
5,
,
,
,
,
,
#SECTION
000000000000000000000000000008000000
#SCROLL 0.5
300000000000,
#SCROLL 1
,
#M
100100100100110000000000,
200200200200210000000000,
#GOGOSTART
200
#GOGOEND
000100000100000100000102000000000000000000000,
100200100200210000000000,
#GOGOSTART
200
#GOGOEND
000100000100000100000102000000000000000000000,
200000200000200000200000201000000000000000000000,
#GOGOSTART
20
#GOGOEND
00100020201000,
12012020,
70087008,
70087008,
70087008,
70087008,
7008,
6,
#SECTION
000000000000000000000000000008000000
#SCROLL 0.5
300000000000,
#SCROLL 1
,
#BRANCHSTART p,0,1
#N
,
,
,
,
,
,
,
,
#E
500008000000500008000000500000000008000000500008,
000000500008000000500000000008000000100000000000,
500008000000500008000000500000000008000000500008,
000000500008000000500000000008000000100000000000,
500008000000500008000000500000000008000000500008,
000000500008000000500000000008000000100000000000,
#SECTION
500000000000000000000000000008000000
#SCROLL 0.5
300000000000,
#SCROLL 1
,
#M
1120212010211011,
1120001021201022,
2210121020122020,
2222102021201011,
1120212010211011,
1120001021201011,
#SECTION
600000000000000000000000000008000000
#SCROLL 0.5
300000000000,
#SCROLL 1
,
#BRANCHSTART p,0,1
#N
#MEASURE 1/8
,
,
,
,
,
,
,
,
,
,
,
,
,
,
,
,
,
,
,
,
,
,
,
,
,
,
,
,
,
,
,
,
,
,
,
,
,
,
,
,
,
,
,
,
,
,
,
,
#MEASURE 4/4
,
,
#E
#MEASURE 1/8
6,
,
,
,
,
,
,
,
,
,
,
,
000008,
,
,
,
5,
,
,
,
,
,
,
,
,
,
,
,
000008,
,
,
,
6,
,
,
,
,
,
,
,
,
,
,
,
000008,
,
,
,
#MEASURE 4/4
#BARLINEOFF
#SECTION
500000000000000000000000000008000000
#SCROLL 0.5
300000000000,
#SCROLL 1
,
#M
#MEASURE 1/8
2,
1,
2,
2,
1,
2,
1,
2,
1,
2,
2,
1,
1,
2,
1,
1,
1,
2,
2,
2,
1,
2,
1,
1,
1,
2,
2,
1,
2,
2,
1,
2,
2,
1,
2,
2,
1,
2,
1,
2,
1,
2,
2,
1,
1,
2,
1,
1,
#BARLINEOFF
#MEASURE 4/4
#SECTION
600000000000000000000000000008000000
#SCROLL 0.5
300000000000,
#SCROLL 1
,
#BARLINEON
#BRANCHSTART p,0,1
#N
,
,
,
,
,
,
,
,
#E
508000508000508000508000508000508000508000000000,
508000508000508000508000508000508000508000000000,
508000508000508000508000508000508000508000000000,
508000508000508000508000508000508000508000000000,
508000508000508000508000508000508000508000000000,
508000508000508000508000508000508000508000000000,
#SECTION
500000000000000000000000000008000000
#SCROLL 0.5
300000000000,
#SCROLL 1
,
#M
1121211221222000,
1121221221222000,
0021211221222000,
1121221221222000,
1121211221212000,
1121221221212000,
#SECTION
600000000000000000000000000008000000
#SCROLL 0.5
300000000000,
#SCROLL 1
,
#GOGOSTART
#BRANCHSTART p,0,1
#N
,
,
,
,
,
,
,
,
#E
500000000008000000500000000008000000500008000000,
500000000008000000500000000008000000500008000000,
500000000008000000500000000008000000500008000000,
500000000008000000500000000008000000500008000000,
500000000008000000500000000008000000500008000000,
500000000008000000500000000008000000500008000000,
#SECTION
500000000000000000000000000008000000
#SCROLL 0.5
300000000000,
#GOGOEND
#SCROLL 1
,
#M
1012201210201212,
1012201220201212,
1012201210201212,
1012201210202000,
1012201210201212,
1012201220201212,
#SECTION
600000000000000000000000000008000000
#SCROLL 0.5
300000000000,
#GOGOEND
#SCROLL 1
,
#GOGOSTART
#BRANCHSTART p,0,1
#N
,
,
,
,
,
,
,
,
#E
500000000008000000500000000008000000500008000000,
500000000008000000500000000008000000500008000000,
500000000008000000500000000008000000500008000000,
500000000008000000500000000008000000500008000000,
500000000008000000500000000008000000500008000000,
500000000008000000500000000008000000500008000000,
608000000000608000000000608000608000608000000000,
608000608000608000608000000000608000608000000000,
#M
1021202120201212,
1021201210201212,
1021202120201212,
1021201210202000,
2021202120202121,
2021202120202120,
41423341,
44341440,
#BRANCHEND
#GOGOEND
#END
COURSE:Oni
LEVEL:9
BALLOON:3,3,3,3,3,3,3,3,8
SCOREINIT:390
SCOREDIFF:98
#START
#GOGOSTART
#BARLINEOFF
#MEASURE 1/16
#SCROLL 0.5
4,
#GOGOEND
#BARLINEON
#MEASURE 1/8
#SCROLL 0.51
00,
#SCROLL 0.52
00,
#SCROLL 0.53
00,
#SCROLL 0.54
0
#SCROLL 0.5
1,
#SCROLL 0.55
00,
#SCROLL 0.56
00,
#SCROLL 0.57
00,
#SCROLL 0.58
00,
#SCROLL 0.59
00,
#SCROLL 0.6
0
#SCROLL 0.5
1,
#SCROLL 0.61
00,
#SCROLL 0.62
0
#SCROLL 0.5
1,
#SCROLL 0.63
00,
#SCROLL 0.64
00,
#SCROLL 0.65
00,
#SCROLL 0.66
0
#SCROLL 0.5
1,
#SCROLL 0.67
00,
#SCROLL 0.68
00,
#SCROLL 0.69
00,
#SCROLL 0.7
0
#SCROLL 0.5
1,
#SCROLL 0.71
00,
#SCROLL 0.72
00,
#SCROLL 0.73
00,
#SCROLL 0.74
00,
#SCROLL 0.75
00,
#SCROLL 0.76
0
#SCROLL 0.5
1,
#SCROLL 0.77
00,
#SCROLL 0.78
0
#SCROLL 0.5
1,
#SCROLL 0.79
00,
#SCROLL 0.8
0
#SCROLL 0.5
1,
#SCROLL 0.81
00,
#SCROLL 0.82
0
#GOGOSTART
#SCROLL 0.5
4,
#GOGOEND
#SCROLL 0.83
00,
#SCROLL 0.84
00,
#SCROLL 0.85
00,
#SCROLL 0.86
0
#SCROLL 0.5
1,
#SCROLL 0.87
00,
#SCROLL 0.88
00,
#SCROLL 0.89
00,
#SCROLL 0.9
00,
#SCROLL 0.91
00,
#SCROLL 0.92
0
#SCROLL 0.5
1,
#SCROLL 0.93
00,
#SCROLL 0.94
0
#SCROLL 0.5
1,
#SCROLL 0.95
00,
#SCROLL 0.96
00,
#SCROLL 0.97
00,
#SCROLL 0.98
0
#SCROLL 0.5
1,
#SCROLL 0.99
00,
#SCROLL 1
00,
#SCROLL 1.01
00,
#SCROLL 1.02
0
#SCROLL 0.5
1,
#SCROLL 1.03
00,
#SCROLL 1.04
0
#SCROLL 0.5
1,
#SCROLL 1.05
00,
#SCROLL 1.06
0
#GOGOSTART
#SCROLL 0.5
4,
#BARLINEOFF
,
,
,
,
#GOGOEND
,
,
,
#MEASURE 1/16
,
#BARLINEON
#MEASURE 4/4
#SCROLL 1
11121112,
11121112,
11121112,
11121120,
11221122,
11221122,
12121212,
12221220,
10201102,
02121120,
20201102,
02121110,
10201102,
02121120,
20202202,
100100100020002000200020002000200020002000000000,
1022201010201020,
1022201010201020,
1022201110222011,
1022201010202000,
1022201010201020,
1022201010201020,
1022201020102010,
2020102010202020,
1011201010102020,
1022101020102010,
1011201110112011,
1022101010202000,
1011201010102020,
1022101010202010,
1022201020102010,
2022102010202020,
#GOGOSTART
1002201010200220,
1002202010200220,
1002201010200220,
1002201020101000,
1002201010200220,
1001102010200220,
1002201010200220,
1001102010202000,
1002201010200220,
1002202010200220,
1002201010200220,
1002201020101000,
1002201110200220,
1001102210200220,
1002201110200220,
1001102010202000,
#GOGOEND
100100100100110000000000,
200200200200210000000000,
#GOGOSTART
400
#GOGOEND
000100000100000100000102000000000000000000000,
100200100200110000000000,
#GOGOSTART
400
#GOGOEND
000100000100000100000101000000000000000000000,
200200200200210000000000,
#GOGOSTART
4
#GOGOEND
000100020201000,
12012020,
12111211,
12111211,
12111211,
12211210,
11221121,
12112121,
11221121,
12212210,
1001202010120011,
1020002011112000,
2001202010120022,
2010001022221000,
1001202010120011,
1020002011112000,
2002102010120010,
100100100020002000200020002000200020001000000000,
#MEASURE 1/8
2,
1,
2,
2,
1,
2,
1,
2,
1,
2,
2,
1,
1,
2,
1,
1,
1,
2,
2,
2,
1,
2,
1,
1,
1,
2,
2,
1,
2,
2,
1,
2,
2,
1,
2,
2,
1,
2,
1,
2,
1,
2,
2,
1,
1,
2,
1,
1,
1,
2,
2,
2,
1,
2,
1,
1,
1,
2,
2,
1,
2,
2,
1,
2,
#MEASURE 4/4
1020102010222010,
2010201020111010,
1020201020222010,
2010201020222020,
1020102010222010,
2010201020111010,
1020201020222010,
2010201020222020,
#GOGOSTART
1002201010200220,
1002202010200220,
1002201010200220,
1002201020101000,
1002201010200220,
1001102010200220,
1002201010200220,
#GOGOEND
1001102010202000,
#GOGOSTART
1022201010202220,
1022202010202220,
1022201010202220,
1022201020202000,
2011201120202220,
2011201120202210,
41414441,
44440440,
#GOGOEND
#END
COURSE:Hard
LEVEL:7
SCOREINIT:500
SCOREDIFF:125
BALLOON:10,10
#START
#GOGOSTART
#BARLINEOFF
#MEASURE 1/16
#SCROLL 0.5
4,
#GOGOEND
#BARLINEON
#MEASURE 1/8
#SCROLL 0.51
00,
#SCROLL 0.52
00,
#SCROLL 0.53
00,
#SCROLL 0.54
00,
#SCROLL 0.55
00,
#SCROLL 0.56
00,
#SCROLL 0.57
00,
#SCROLL 0.58
00,
#SCROLL 0.59
00,
#SCROLL 0.6
00,
#SCROLL 0.61
00,
#SCROLL 0.62
00,
#SCROLL 0.63
00,
#SCROLL 0.64
00,
#SCROLL 0.65
00,
#SCROLL 0.66
0
#SCROLL 0.5
1,
#SCROLL 0.67
00,
#SCROLL 0.68
00,
#SCROLL 0.69
00,
#SCROLL 0.7
00,
#SCROLL 0.71
00,
#SCROLL 0.72
00,
#SCROLL 0.73
00,
#SCROLL 0.74
00,
#SCROLL 0.75
00,
#SCROLL 0.76
00,
#SCROLL 0.77
00,
#SCROLL 0.78
00,
#SCROLL 0.79
00,
#SCROLL 0.8
00,
#SCROLL 0.81
00,
#SCROLL 0.82
0
#SCROLL 0.5
#GOGOSTART
4,
#SCROLL 0.83
#GOGOEND
00,
#SCROLL 0.84
00,
#SCROLL 0.85
00,
#SCROLL 0.86
00,
#SCROLL 0.87
00,
#SCROLL 0.88
00,
#SCROLL 0.89
00,
#SCROLL 0.9
00,
#SCROLL 0.91
00,
#SCROLL 0.92
00,
#SCROLL 0.93
00,
#SCROLL 0.94
00,
#SCROLL 0.95
00,
#SCROLL 0.96
00,
#SCROLL 0.97
00,
#SCROLL 0.98
0
#SCROLL 0.5
1,
#SCROLL 0.99
00,
#SCROLL 1
00,
#SCROLL 1.01
00,
#SCROLL 1.02
00,
#SCROLL 1.03
00,
#SCROLL 1.04
00,
#SCROLL 1.05
00,
#SCROLL 1.06
0
#SCROLL 0.5
#GOGOSTART
4,
#BARLINEOFF
00,
00,
00,
00,
#GOGOEND
00,
00,
00,
#MEASURE 1/16
0,
#BARLINEON
#MEASURE 4/4
#SCROLL 1
11101110,
11101110,
11101110,
11102200,
11101110,
11101110,
11101110,
11102220,
10102201,
01022010,
20201102,
02011020,
10102201,
01022010,
20202207,
0008,
10111020,
11011020,
10111020,
11010220,
10111020,
11011020,
11101010,
11010220,
10111020,
11011020,
10111020,
11010220,
10111020,
11011020,
22202020,
22020220,
#GOGOSTART
10110102,
10110102,
10110102,
10110220,
10110102,
10110102,
10110102,
10110330,
10110202,
10110202,
10110202,
10110220,
10110202,
10110202,
10110202,
10110330,
#GOGOEND
11111000,
11111000,
#GOGOSTART
4
#GOGOEND
010101010000000,
11111000,
#GOGOSTART
4
#GOGOEND
010101010000000,
11111000,
#GOGOSTART
4
#GOGOEND
000100010101000,
11011020,
11101110,
11101110,
11101110,
11102200,
11101110,
11101110,
11101110,
11102220,
10102201,
01022010,
20201102,
02011020,
10102201,
01022010,
20202207,
0008,
#MEASURE 1/8
1,
,
1,
,
1,
,
1,
,
1,
,
1,
,
1,
,
1,
,
1,
,
1,
,
1,
,
1,
,
1,
,
1,
,
1,
,
1,
,
1,
,
1,
,
1,
,
1,
,
1,
,
1,
,
1,
,
1,
,
1,
,
1,
,
1,
,
1,
,
#MEASURE 4/4
500000000000000000000000000000000008000000000000,
10101120,
10101120,
10101120,
1110,
20201120,
20201120,
20201120,
2220,
#GOGOSTART
10110202,
10110202,
10110202,
10110220,
10110202,
10110202,
10110202,
#GOGOEND
10110330,
#GOGOSTART
10210212,
10210212,
10210212,
10210220,
10212121,
21212120,
40404440,
44440440,
#GOGOEND
#END
COURSE:Normal
LEVEL:6
SCOREINIT:710
SCOREDIFF:205
BALLOON:5,5
#START
#BARLINEOFF
#MEASURE 1/16
#GOGOSTART
#SCROLL 0.5
4,
#BARLINEON
#MEASURE 1/8
#GOGOEND
#SCROLL 0.51
00,
#SCROLL 0.52
00,
#SCROLL 0.53
00,
#SCROLL 0.54
00,
#SCROLL 0.55
00,
#SCROLL 0.56
00,
#SCROLL 0.57
00,
#SCROLL 0.58
00,
#SCROLL 0.59
00,
#SCROLL 0.6
00,
#SCROLL 0.61
00,
#SCROLL 0.62
00,
#SCROLL 0.63
00,
#SCROLL 0.64
00,
#SCROLL 0.65
00,
#SCROLL 0.66
00,
#SCROLL 0.67
00,
#SCROLL 0.68
00,
#SCROLL 0.69
00,
#SCROLL 0.7
00,
#SCROLL 0.71
00,
#SCROLL 0.72
00,
#SCROLL 0.73
00,
#SCROLL 0.74
00,
#SCROLL 0.75
00,
#SCROLL 0.76
00,
#SCROLL 0.77
00,
#SCROLL 0.78
00,
#SCROLL 0.79
00,
#SCROLL 0.8
00,
#SCROLL 0.81
00,
#SCROLL 0.82
0
#SCROLL 0.5
#GOGOSTART
4,
#SCROLL 0.83
#GOGOEND
00,
#SCROLL 0.84
00,
#SCROLL 0.85
00,
#SCROLL 0.86
00,
#SCROLL 0.87
00,
#SCROLL 0.88
00,
#SCROLL 0.89
00,
#SCROLL 0.9
00,
#SCROLL 0.91
00,
#SCROLL 0.92
00,
#SCROLL 0.93
00,
#SCROLL 0.94
00,
#SCROLL 0.95
00,
#SCROLL 0.96
00,
#SCROLL 0.97
00,
#SCROLL 0.98
00,
#SCROLL 0.99
00,
#SCROLL 1
00,
#SCROLL 1.01
00,
#SCROLL 1.02
00,
#SCROLL 1.03
00,
#SCROLL 1.04
00,
#SCROLL 1.05
00,
#SCROLL 1.06
0
#SCROLL 0.5
#GOGOSTART
4,
#BARLINEOFF
00,
00,
00,
00,
#GOGOEND
00,
00,
00,
#MEASURE 1/16
0,
#BARLINEON
#MEASURE 4/4
#SCROLL 1
1110,
1110,
1111,
1110,
1110,
1110,
2222,
2220,
10101001,
01011000,
10101001,
01011000,
10101001,
01011000,
10101007,
0008,
1120,
12,
1111,
500000000000000000000000000008000000000000000000,
1120,
12,
5,
000000000000000000000000000008000000000000000000,
1120,
12,
1122,
500000000000000000000000000008000000000000000000,
1120,
12,
5,
000000000000000000000000000008000000000000000000,
#GOGOSTART
10110000,
10010000,
10010000,
30030000,
10110000,
10010000,
10010000,
30030000,
10110010,
10010010,
10010010,
30030000,
10110020,
10010020,
10010020,
30030000,
#GOGOEND
2,
500000000000000000000000000008000000000000000000,
#GOGOSTART
4
#GOGOEND
000000000000000,
500000000000000000000000000008000000000000000000,
#GOGOSTART
4
#GOGOEND
000000000000000,
500000000000000000000000000008000000000000000000,
#GOGOSTART
4
#GOGOEND
000000020002000,
22,
1120,
1120,
1111,
2220,
1120,
1120,
1111,
2220,
10101001,
01011000,
10101001,
01011000,
10101001,
01011000,
10101007,
0008,
6,
00000800,
5,
000000000000000000000000000008000000000000000000,
6,
00000800,
5,
000000000000000000000000000008000000000000000000,
10101110,
1110,
10101110,
1110,
10101110,
1110,
10101110,
500000000000000000000000000008000000000000000000,
#GOGOSTART
10110020,
10010020,
10010020,
30030000,
10110020,
10010020,
10010020,
#GOGOEND
30030000,
#GOGOSTART
10110020,
10110020,
10110020,
30030000,
10110020,
10110020,
20202220,
60000800,
#GOGOEND
#END
COURSE:Easy
LEVEL:4
BALLOON:4,4
SCOREINIT:600
SCOREDIFF:200
#START
#BARLINEOFF
#MEASURE 1/16
#GOGOSTART
#SCROLL 0.5
4,
#BARLINEON
#MEASURE 1/8
#GOGOEND
#SCROLL 0.51
00,
#SCROLL 0.52
00,
#SCROLL 0.53
00,
#SCROLL 0.54
00,
#SCROLL 0.55
00,
#SCROLL 0.56
00,
#SCROLL 0.57
00,
#SCROLL 0.58
00,
#SCROLL 0.59
00,
#SCROLL 0.6
00,
#SCROLL 0.61
00,
#SCROLL 0.62
00,
#SCROLL 0.63
00,
#SCROLL 0.64
00,
#SCROLL 0.65
00,
#SCROLL 0.66
00,
#SCROLL 0.67
00,
#SCROLL 0.68
00,
#SCROLL 0.69
00,
#SCROLL 0.7
00,
#SCROLL 0.71
00,
#SCROLL 0.72
00,
#SCROLL 0.73
00,
#SCROLL 0.74
00,
#SCROLL 0.75
00,
#SCROLL 0.76
00,
#SCROLL 0.77
00,
#SCROLL 0.78
00,
#SCROLL 0.79
00,
#SCROLL 0.8
00,
#SCROLL 0.81
00,
#SCROLL 0.82
0
#SCROLL 0.5
#GOGOSTART
4,
#SCROLL 0.83
#GOGOEND
00,
#SCROLL 0.84
00,
#SCROLL 0.85
00,
#SCROLL 0.86
00,
#SCROLL 0.87
00,
#SCROLL 0.88
00,
#SCROLL 0.89
00,
#SCROLL 0.9
00,
#SCROLL 0.91
00,
#SCROLL 0.92
00,
#SCROLL 0.93
00,
#SCROLL 0.94
00,
#SCROLL 0.95
00,
#SCROLL 0.96
00,
#SCROLL 0.97
00,
#SCROLL 0.98
00,
#SCROLL 0.99
00,
#SCROLL 1
00,
#SCROLL 1.01
00,
#SCROLL 1.02
00,
#SCROLL 1.03
00,
#SCROLL 1.04
00,
#SCROLL 1.05
00,
#SCROLL 1.06
0
#SCROLL 0.5
#GOGOSTART
4,
#BARLINEOFF
00,
00,
00,
00,
#GOGOEND
00,
00,
00,
#MEASURE 1/16
0,
#BARLINEON
#MEASURE 4/4
#SCROLL 1
11,
1,
11,
1,
11,
1,
11,
1,
11,
02,
11,
02,
11,
02,
10001007,
0008,
22,
22,
11,
500000000000000000000000000008000000000000000000,
22,
22,
5,
000000000000000000000000000008000000000000000000,
22,
22,
11,
500000000000000000000000000008000000000000000000,
22,
22,
5,
000000000000000000000000000008000000000000000000,
#GOGOSTART
10010000,
10010000,
10010000,
30030000,
10010000,
10010000,
10010000,
30030000,
20020000,
20020000,
20020000,
30030000,
20020000,
20020000,
20020000,
30030000,
#GOGOEND
2,
500000000000000000000000000008000000000000000000,
#GOGOSTART
4
#GOGOEND
000000000000000,
500000000000000000000000000008000000000000000000,
#GOGOSTART
4
#GOGOEND
000000000000000,
500000000000000000000000000008000000000000000000,
#GOGOSTART
4
#GOGOEND
000000000000000,
2,
11,
1,
1110,
1,
11,
1,
1110,
1,
11,
22,
11,
22,
11,
22,
10001007,
0008,
6,
00000800,
5,
000000000000000000000000000008000000000000000000,
6,
00000800,
5,
000000000000000000000000000008000000000000000000,
1110,
1110,
1110,
1110,
1110,
1110,
1111,
500000000000000000000000000008000000000000000000,
#GOGOSTART
10010000,
10010000,
10010000,
30030000,
20020000,
20020000,
20020000,
#GOGOEND
30030000,
#GOGOSTART
10010000,
20020000,
10010000,
30030000,
10020000,
10020000,
10020000,
60000800,
#GOGOEND
,
#END