Files
ESE/09 Namco Original/Jikuuchou 3 choume/Jikuuchou 3 choume.tja
T
2024-09-16 10:11:12 -04:00

981 lines
8.3 KiB
Plaintext

//TJADB Project
TITLE:Jikuuchou 3-choume
TITLEJA:時空町3丁目
SUBTITLE:--Kyunchako
SUBTITLEJA:きゅんちゃこ
BPM:190
WAVE:Jikuuchou 3 choume.ogg
OFFSET:-1.299
DEMOSTART:21.096
COURSE:Oni
LEVEL:8
BALLOON:40
SCOREINIT:440,1400
SCOREDIFF:113
#START
#MEASURE 3/4
0,
0,
000000222, //3
100022102020,
122,
100021102000,
101120000000,
111020102220,
111020102210,
222010201120,
102220,
100200222, //12
100022102020,
122,
100022102000,
101120000000,
111020102220,
111020102220,
222010202220,
201210,
101110112020, //21
#GOGOSTART
222220102010,
111110001000,
222220201020,
100100100100100000000000100020002000,
111110102010,
222210201020,
222220201020,
101110102000,
222210201010,
222220001010,
222210202000,
100100100100200000100000200020002000, //33
111110102000,
222210201000,
222220201020,
111110003000,
111110102000,
222210201000,
111110102010,
222020004000,
200020221000,
200020221000,
111110102020,
222220201000, //45
#GOGOEND
#MEASURE 6/4
#SCROLL 0.5
100000200020200022200020,
202202200200,
200000200020200022200020,
202202200200, //49
#MEASURE 1/32
#BPMCHANGE 47.5
#SCROLL 0.8
1,
#SCROLL 1
0,
#SCROLL 1.2
0,
#SCROLL 1.4
2,
#SCROLL 1.6
0,
#SCROLL 1.8
1,
#SCROLL 2
1,
#SCROLL 2.2
0,
#SCROLL 2.4
2,
#SCROLL 2.6
1,
#SCROLL 2.8
2,
#SCROLL 3
0,
#SCROLL 3.2
1,
#SCROLL 3.4
0,
#SCROLL 3.6
0,
#SCROLL 3.8
2,
#SCROLL 4
0,
#SCROLL 4.2
1,
#SCROLL 4.4
1,
#SCROLL 4.6
0,
#SCROLL 4.8
2,
#SCROLL 4.6
1,
#SCROLL 4.4
0,
#SCROLL 4.2
1, //73
#MEASURE 3/4
#BPMCHANGE 190
#SCROLL 1
111011200010,
100022102000,
111011200010,
100022100010,
111011200010,
100022102000,
111011200010,
100022100000, //81
111000100010,
11,
#MEASURE 1/32
#BPMCHANGE 47.5
#SCROLL 4.4
1,
#SCROLL 4.2
0,
#SCROLL 4
1,
#SCROLL 3.8
0,
#SCROLL 3.6
1,
#SCROLL 3.4
0,
#SCROLL 3.2
2,
#SCROLL 3
2,
#SCROLL 2.8
2,
#SCROLL 2.6
2,
#SCROLL 2.4
2,
#SCROLL 2.2
2,
#MEASURE 3/4
#BPMCHANGE 190
#SCROLL 0.5
202000202222, //96
#SCROLL 1
#GOGOSTART
222220102010,
111110001000,
222220201020,
100100100100100000000000100020002000,
111110102010,
222210201020,
222220201020,
101110102000,
222210201010,
222220001010,
222210202000,
100100100100200000100000200020002000, //108
111110102000,
222210201000,
222220201020,
111110003000,
111110102000,
222210201000,
111110102010,
222020003000,
200020221000,
200020221000,
200020221000,
200020221000,
111110102020,
222220201000, //122
#GOGOEND
300201,
112000,
300201,
200200200000202020,
100000111100200200,
122,
100000222200200200,
101120000000, //130
111020102220,
111020102210,
222010201120,
101010100100100010001000100000100000,
101010100100100010001000100000000000,
100000111100200200,
122,
100000222200200200, //138
101120000000,
111020102220,
111020102220,
202020200200100010001000100000200000,
7,
0,
0,
008,
0,
0,
0,
#MEASURE 4/4
0, //150
#END
COURSE:Hard
LEVEL:6
BALLOON:27
SCOREINIT:560,2300
SCOREDIFF:150
#START
#MEASURE 3/4
0,
0,
0, //3
102120,
122,
102120,
112000,
101022,
101021,
202012,
102220,
022, //12
102120,
122,
102120,
112000,
101022,
101022,
201022,
201210,
111120, //21
#GOGOSTART
201221,
111010,
500000000000000000000008000000000000,
111010,
102112,
211020,
500000000000000000000008000000000000,
111122,
201211,
222010,
201211,
102120, //33
111120,
221220,
222230,
112110,
111120,
221220,
222020,
112110,
202210,
202210,
111122,
222210, //45
#GOGOEND
#MEASURE 6/4
#SCROLL 0.5
100202200200,
200202200200,
200202200200,
200202200200, //49
#MEASURE 1/32
#BPMCHANGE 47.5
#SCROLL 0.8
1,
#SCROLL 1
0,
#SCROLL 1.2
0,
#SCROLL 1.4
1,
#SCROLL 1.6
0,
#SCROLL 1.8
0,
#SCROLL 2
1,
#SCROLL 2.2
0,
#SCROLL 2.4
0,
#SCROLL 2.6
1,
#SCROLL 2.8
0,
#SCROLL 3
0,
#SCROLL 3.2
1,
#SCROLL 3.4
0,
#SCROLL 3.6
0,
#SCROLL 3.8
1,
#SCROLL 4
0,
#SCROLL 4.2
0,
#SCROLL 4.4
1,
#SCROLL 4.6
0,
#SCROLL 4.8
0,
#SCROLL 4.6
1,
#SCROLL 4.4
0,
#SCROLL 4.2
0, //73
#MEASURE 3/4
#BPMCHANGE 190
#SCROLL 1
100201,
102120,
100201,
102101,
100201,
102120,
100201,
102100, //81
100101,
11,
#MEASURE 1/32
#BPMCHANGE 47.5
#SCROLL 4.4
1,
#SCROLL 4.2
0,
#SCROLL 4
1,
#SCROLL 3.8
0,
#SCROLL 3.6
1,
#SCROLL 3.4
0,
#SCROLL 3.2
2,
#SCROLL 3
0,
#SCROLL 2.8
2,
#SCROLL 2.6
0,
#SCROLL 2.4
2,
#SCROLL 2.2
0,
#MEASURE 3/4
#BPMCHANGE 190
#SCROLL 0.5
220220, //96
#SCROLL 1
#GOGOSTART
201221,
111010,
500000000000000000000008000000000000,
111010,
102112,
211020,
500000000000000000000008000000000000,
111122,
201211,
222010,
201211,
102120, //108
111120,
221220,
222210,
112110,
111120,
221220,
222020,
112110,
202210,
202210,
202210,
202210,
111122,
222210, //122
#GOGOEND
3,
222000,
3,
222020,
100022202000,
122,
100022202000,
112000, //130
100010002220,
100010002220,
200020001110,
500000000000000000000000000008000000,
500000000000000000000000000008000000,
100022202000,
122,
100022202000, //138
112000,
100010002220,
100010002220,
200010002220,
9,
0,
0009,
008,
0,
0,
0,
#MEASURE 4/4
0, //150
#END
COURSE:Normal
LEVEL:5
BALLOON:18
SCOREINIT:600,3330
SCOREDIFF:180
#START
#MEASURE 3/4
0,
0,
0, //3
102220,
122,
102220,
120,
102,
102,
201,
102220,
022, //12
102220,
122,
102220,
120,
102,
102,
202,
2,
111020, //21
#GOGOSTART
200220,
101,
500000000000000000000008000000000000,
111,
100110,
202,
500000000000000000000008000000000000,
111020,
200220,
101,
200220,
102220, //33
111010,
202220,
222040,
101110,
111010,
202220,
222020,
111010,
111,
222,
111,
222, //45
#GOGOEND
#MEASURE 6/4
#SCROLL 0.5
1222,
2220,
2222,
2220, //49
#MEASURE 1/32
#BPMCHANGE 47.5
#SCROLL 0.8
1,
#SCROLL 1
0,
#SCROLL 1.2
0,
#SCROLL 1.4
0,
#SCROLL 1.6
0,
#SCROLL 1.8
0,
#SCROLL 2
1,
#SCROLL 2.2
0,
#SCROLL 2.4
0,
#SCROLL 2.6
0,
#SCROLL 2.8
0,
#SCROLL 3
0,
#SCROLL 3.2
1,
#SCROLL 3.4
0,
#SCROLL 3.6
0,
#SCROLL 3.8
0,
#SCROLL 4
0,
#SCROLL 4.2
0,
#SCROLL 4.4
1,
#SCROLL 4.6
0,
#SCROLL 4.8
0,
#SCROLL 4.6
0,
#SCROLL 4.4
0,
#SCROLL 4.2
0, //73
#MEASURE 3/4
#BPMCHANGE 190
#SCROLL 1
12,
122,
12,
120,
12,
122,
12,
120, //81
11,
1,
#MEASURE 1/32
#BPMCHANGE 47.5
#SCROLL 4.4
1,
#SCROLL 4.2
0,
#SCROLL 4
1,
#SCROLL 3.8
0,
#SCROLL 3.6
1,
#SCROLL 3.4
0,
#SCROLL 3.2
1,
#SCROLL 3
0,
#SCROLL 2.8
0,
#SCROLL 2.6
0,
#SCROLL 2.4
0,
#SCROLL 2.2
0,
#MEASURE 3/4
#BPMCHANGE 190
#SCROLL 0.5
2, //96
#SCROLL 1
#GOGOSTART
200220,
101,
500000000000000000000008000000000000,
111,
100110,
202,
500000000000000000000008000000000000,
111020,
200220,
101,
200220,
102220, //108
111010,
202220,
222020,
101110,
111010,
202220,
222020,
111010,
111,
222,
111,
222,
111110,
222220, //122
#GOGOEND
3,
220,
3,
220,
102220,
122,
102220,
120, //130
102,
102,
201,
500000000000000000000000000008000000,
500000000000000000000000000008000000,
102220,
122,
102220, //138
120,
102,
102,
201,
9,
0,
0009,
008,
0,
0,
0,
#MEASURE 4/4
0, //150
#END
COURSE:Easy
LEVEL:4
BALLOON:15
SCOREINIT:730,6550
SCOREDIFF:293
#START
#MEASURE 3/4
0,
0,
0, //3
110,
220,
110,
220,
101,
1,
201,
1,
0, //12
110,
220,
110,
220,
101,
1,
202,
2,
0, //21
#GOGOSTART
222,
2,
500000000000000008000000000000000000,
1,
111,
1,
500000000000000008000000000000000000,
1,
222,
2,
500000000000000008000000000000000000,
1, //33
110,
220,
224,
2,
110,
220,
500000000000000008000000000000000000,
1,
202,
2,
500000000000000008000000000000000000,
1, //45
#GOGOEND
#MEASURE 6/4
#SCROLL 0.5
12,
22,
22,
22, //49
#MEASURE 1/32
#BPMCHANGE 47.5
#SCROLL 0.8
1,
#SCROLL 1
0,
#SCROLL 1.2
0,
#SCROLL 1.4
0,
#SCROLL 1.6
0,
#SCROLL 1.8
0,
#SCROLL 2
0,
#SCROLL 2.2
0,
#SCROLL 2.4
0,
#SCROLL 2.6
0,
#SCROLL 2.8
0,
#SCROLL 3
0,
#SCROLL 3.2
0,
#SCROLL 3.4
0,
#SCROLL 3.6
0,
#SCROLL 3.8
0,
#SCROLL 4
0,
#SCROLL 4.2
0,
#SCROLL 4.4
0,
#SCROLL 4.6
0,
#SCROLL 4.8
0,
#SCROLL 4.6
0,
#SCROLL 4.4
0,
#SCROLL 4.2
0, //73
#MEASURE 3/4
#BPMCHANGE 190
#SCROLL 1
1,
1,
11,
1,
1,
1,
11,
1, //81
1,
1,
#MEASURE 1/32
#BPMCHANGE 47.5
#SCROLL 4.4
1,
#SCROLL 4.2
0,
#SCROLL 4
0,
#SCROLL 3.8
0,
#SCROLL 3.6
0,
#SCROLL 3.4
0,
#SCROLL 3.2
0,
#SCROLL 3
0,
#SCROLL 2.8
0,
#SCROLL 2.6
0,
#SCROLL 2.4
0,
#SCROLL 2.2
0,
#MEASURE 3/4
#BPMCHANGE 190
#SCROLL 0.5
2, //96
#SCROLL 1
#GOGOSTART
222,
2,
500000000000000008000000000000000000,
1,
111,
1,
500000000000000008000000000000000000,
1,
222,
2,
500000000000000008000000000000000000,
1, //108
110,
220,
222,
2,
110,
220,
500000000000000008000000000000000000,
2,
202,
2,
202,
2,
500000000000000008000000000000000000,
500000000000000008000000000000000000, //122
#GOGOEND
3,
2,
3,
2,
110,
220,
110,
220, //130
101,
1,
201,
500000000000000000000000000008000000,
500000000000000008000000000000000000,
110,
220,
110, //138
220,
101,
102,
2,
9,
0,
0009,
008,
0,
0,
0,
#MEASURE 4/4
0, //150
#END