Files
ESE/09 Namco Original/Wavy Baby/Wavy Baby.tja
T
2023-06-15 19:15:39 -05:00

541 lines
18 KiB
Plaintext

//TJADB Project
TITLE:Wavy Baby
TITLEJA:Wavy Baby
SUBTITLE:--Monaka Hinata
SUBTITLEJA:陽当モナカ
BPM:210
WAVE:Wavy Baby.ogg
OFFSET:-2.388
DEMOSTART:64.947
COURSE:Oni
LEVEL:9
BALLOON:3,3,3,3,3,3
SCOREINIT:460
SCOREDIFF:110
#START
100000000000000000000200200200000000000000000000,
100000000000000000000000200000000000000000000000,
000000000000000000000000000000000000000000000000,
000000000000000000000000000000000000000000000000,
100000000000000000000200200200000000000000000000,
100000000000000000000000200000000000000000000000,
200000200000100000100000200000200000100000100000,
100000100000200000000000200000202020200000000000,
#GOGOSTART
100000100100200000200200100000100100200000200200,
100000100100200000500000000008000000200200200000,
100100100000200200200000100100100000200200200000,
100100100000200000500000000000000008000000000000,
100000100100200000200200100000100100200000200200,
100000100100200000500000000008000000200200200000,
100100100000200200200000100100100000200200200000,
500000000000000000000000000000000000000008000000,
200000200000200000700000000800000000200000200000,
200000700000000800000000200000200000500008000000,
200000200000200000700000000800000000200000100000,
200000200000000000200000000000200000200000200000,
#GOGOEND
100000000000200000200200100000000000200000000000,
100000000000200000100100100000100000200000000000,
100000100000200000000000100000100000200000000000,
100000000000000000200200200000200000100000000000,
100000000000200000200200100000000000200000000000,
100000000000200000100100100000100000200000000000,
100000100000200000000000100000100000200000000000,
100000100000100000200200200000200000100000000000,
#GOGOSTART
000000100100200000000000100100100000000000200200,
200000200000000000200000200000000000700000000800,
000000100100200000000000100100100000000000200200,
200000200000000000200000200000000000700000000800,
000000100100200000000000100100100000000000200200,
200000200000000000200000200000000000700000000800,
000000100100200000000000100100100000000000500008,
000000500008000000500008000000200000200000000000,
#GOGOEND
100100100000200200200000100000100000200000100100,
100000100000100000100000200200200000100000000000,
100100100000200200200000100000100000200000100100,
100000200000200000200000200000200000200200200000,
100100100000200200200000100000100000200000100100,
100000100000100000100000200200200000100000000000,
200200200000100000200200200000100000200200200000,
000000200000200000200000200200200200200000100100,
200000200200100000200000000000200000000000200000,
100100100100100000200000000000200000000000200000,
100100100100100000200000000000200000000000200000,
100100100000000000200000000000000000000000000000,
100000100000000000200200200200200000000000200000,
100100100100100000200000000000200200200200200000,
100000100000000000200200200200200000000000200000,
100000000000200000000000100000100000000000300000,
000000000000000000000000000000000000400000000000,
000000000000000000000000000000000000400000000000,
000000000000000000000000000000000000200000000000,
#GOGOSTART
100100100100200000000000100100100100200000000000,
100100100100200000000000100100100100100000000000,
100000100100200000000000100000100000200000000000,
100000100100100000100100100000100000200000000000,
100100100100200000000000100100100100200000000000,
100100100100200000000000100100100100100000000000,
100000100100200000100000000000100100200000100100,
100000100100100000100100100000100000200000000000,
100100100100200000000000100100100100200000000000,
100100100100200000000000100100100100100000000000,
100000100100200000000000100000100000200000000000,
100000100100100000100100100000100000200000000000,
100100100100200000000000100100100100200000000000,
100100100100200000000000100100100100100000000000,
100000200200200000100000000000200000000000100000,
000000000000200000100000000000200200200000500000,
000000000000000000000000000000000000000000000000,
000000000008000000000000000000000000000000000000,
#GOGOEND
300000000000300000000000300000300000000000300000,
300000000000300000300000000000400000400000000000,
300000000000300000000000300000300000000000300000,
300000000000300000300000000000400000400000000000,
200000100000200000200000100000200000200000100000,
200000200000100000200000200000100000400000000000,
300000000000200000000000100000000000400000000000,
300000000000200000000000500000000000000008000000,
100000000000200000000000100000000000200000000000,
500000000000000000000008000000000000400000000000,
300000000000200000000000100000000000400000000000,
300000000000200000000000500000000008000000100100,
200000200000000000200200100000200000000000200200,
100100200200100100200200100000100000200200200000,
#GOGOSTART
100100100100200200200000100100100100200200200000,
100100100100200200200000100100100100100000000000,
100000100100200000000000100000100000200000000000,
100000100100100000100100100000100000200200200000,
100100100100200200200000100100100100200200200000,
100100100100200200200000100100100100100000100000,
100000100100200000100000000000100100200000100000,
000000000000200000100100100000200200200000100100,
100000200200100200100000200200100200100000400000,
000000200100200100100000200100200100100000300000,
#GOGOEND
000000000000000000000000000000000000000000000000,
000000000000000000000000000000000000100000300000,
#END
COURSE:Hard
LEVEL:7
SCOREINIT:550
SCOREDIFF:145
#START
12,
12,
,
,
12,
12,
22102210,
11202040,
#GOGOSTART
11112220,
10000000000000001000000000000000
10000000000000005000000000000000
00000000000000080000000000000000
20000000000000000000000000000000,
1110100022202000,
10000000000000001000000000000000
10000000000000005000000000000000
00000000000000000000000000000008
00000000000000000000000000000000,
11112220,
10000000000000001000000000000000
10000000000000005000000000000000
00000000000000080000000000000000
20000000000000000000000000000000,
1110100022202000,//15
50000000000000000000000000000000
00000000000000000000000000000000
00000000000000000000000000000000
00000000000000080000000000000000,
20000000000000002000000000000000
20000000000000005000000000000000
00000000000000080000000000000000
20000000000000002000000000000000,
20000000000000005000000000000000
00000000000000080000000000000000
20000000000000002000000000000000
10000000000000000000000000000000,
20000000000000002000000000000000
20000000000000005000000000000000
00000000000000080000000000000000
20000000000000001000000000000000,
22020222,//20
#GOGOEND
1212,
10210120,
11201120,
1000002220201000,
1212,//25
10210120,
11201120,
1000002220001000,
#GOGOSTART
0000200011100020,
02022010,//30
0000200011100020,
02022010,
0000200011100020,
02022010,
0000200011100010,//35
01010220,
#GOGOEND
20201121,
01112010,
20201121,
0020202020202220,//40
20201121,
0011101110001000,
50000000000000080000000000000000
00000000000000005000000000000008
00000000000000000000000000000000
50000000000000080000000000000000,
0020202022202000,
11020202,//45
11020202,
11020202,
11020000,
11020202,
11020202,//50
11020202,
10201103,
0004,
0004,
0002,//55
#GOGOSTART
1110100010002000,
1110100010000000,
11201120,
50000000000000000000000000000000
00000000000000000000000000000008
00000000000000000000000000000000
20000000000000000000000000000000,
1110100010002000,//60
1110100010000000,
11210205,
00000000000000000000000000000000
00000000000000000000000000000008
00000000000000000000000000000000
20000000000000000000000000000000,
1110100010002000,
1110100010000000,//65
11201120,
50000000000000000000000000000000
00000000000000000000000000000008
00000000000000000000000000000000
20000000000000000000000000000000,
1110100010002000,
1110100010000000,
12210201,//70
00210205,
,
00000000000000000000000000000008
00000000000000000000000000000000
00000000000000000000000000000000
00000000000000000000000000000000,
#GOGOEND
30303303,
30330440,//75
30303303,
30330440,
11122211,
12221140,
3004,//80
3,
1212,
50000000000000000000000000000000
00000000000000000000000000000008
00000000000000000000000000000000
40000000000000000000000000000000,
3004,
3000000000000011,//85
1010001110100011,
10000000000000005000000000000000
00000000000000000000000000000008
00000000000000000000000000000000
10000000000000001000000000000000,
1110101010002020,
2220202020000000,
11201120,//90
50000000000000000000000000000000
00000000000000000000000000000008
00000000000000000000000000000000
10000000000000001000000000000000,
1110101010002020,
2220202020000000,
11210101,
00210201,//95
0022200022200040,
0011100011100030,
#GOGOEND
,
00000013,
,//100
,
#END
COURSE:1
LEVEL:6
BALLOON:12
SCOREINIT:530
SCOREDIFF:148
#START
100000000000000000000000200000000000000000000000,
100000000000000000000000200000000000000000000000,
000000000000000000000000000000000000000000000000,
000000000000000000000000000000000000000000000000,
100000000000000000000000200000000000000000000000,
100000000000000000000000200000000000000000000000,
200000200000200000000000200000200000200000000000,
100000100000100000000000200000000000400000000000,
#GOGOSTART
100000100000100000000000200000000000200000000000,
100000100000100000100000000000000000000000000000,
100000000000100000000000200000000000200000000000,
100000000000000000500000000000000008000000000000,
100000100000100000000000200000000000200000000000,
100000100000100000100000000000000000000000000000,
100000000000100000000000200000000000200000000000,
500000000000000000000000000000000000000008000000,
200000200000200000200000000000000000200000200000,
200000200000000000000000200000200000200000000000,
200000200000200000200000000000000000200000200000,
200000200000000000200000000000200000200000000000,
#GOGOEND
100000000000200000000000100000000000200000000000,
100000000000000000100000000000000000200000000000,
100000000000100000000000200000000000200000000000,
100000000000000000000000000000000000000000000000,
100000000000200000000000100000000000200000000000,
100000000000000000100000000000000000200000000000,
100000000000100000000000200000000000200000000000,
100000000000000000200000000000000000100000000000,
#GOGOSTART
000000000000200000000000100000000000000000200000,
000000200000000000200000200000000000100000000000,
000000000000200000000000100000000000000000200000,
000000200000000000200000200000000000100000000000,
000000000000200000000000100000000000000000200000,
000000200000000000200000200000000000100000000000,
000000000000200000000000100000000000000000100000,
000000100000000000100000000000200000200000000000,
#GOGOEND
000000000000000000000000000000000000000000000000,
000000200000200000200000200000000000200000000000,
000000000000000000000000000000000000000000000000,
000000200000200000200000200000000000200000000000,
000000000000000000000000000000000000000000000000,
000000200000200000200000200000000000100000000000,
200000000000000000200000000000000000200000000000,
000000200000200000200000200000000000000000000000,
100000100000000000200000000000200000000000000000,
100000100000000000200000000000200000000000000000,
100000100000000000200000000000200000000000000000,
100000100000000000200000000000000000000000000000,
100000100000000000200000000000200000000000000000,
100000100000000000200000000000200000000000000000,
100000100000000000200000000000200000000000000000,
100000000000200000000000100000100000000000300000,
000000000000000000000000000000000000400000000000,
000000000000000000000000000000000000400000000000,
000000000000000000000000000000000000400000000000,
#GOGOSTART
300000000000200000000000100000000000400000000000,
300000000000200000000000100000000000000000000000,
100000000000200000000000100000000000200000000000,
500000000000000000000008000000000000400000000000,
300000000000200000000000100000000000400000000000,
300000000000200000000000100000000000000000000000,
100000100000000000100000000000100000000000500000,
000000000000000000000008000000000000400000000000,
300000000000200000000000100000000000400000000000,
300000000000200000000000100000000000000000000000,
100000000000200000000000100000000000200000000000,
500000000000000000000008000000000000400000000000,
300000000000200000000000100000000000400000000000,
300000000000200000000000100000000000000000000000,
200000200000000000100000000000200000000000100000,
000000000000100000100000000000200000000000500000,
000000000000000000000000000000000000000000000000,
000000000008000000000000000000000000000000000000,
#GOGOEND
300000000000300000000000300000300000000000300000,
300000000000300000300000000000400000400000000000,
300000000000300000000000300000300000000000300000,
300000000000300000300000000000400000400000000000,
900000000000000000000000000000000000000000000000,
000000000000000000000000900000000000000000000000,
800000000000000000000000000000000000000000000000,
000000000000000000000000000000000000000000000000,
100000000000200000000000100000000000200000000000,
500000000000000000000008000000000000400000000000,
300000000000000000000000000000000000400000000000,
300000000000000000000000000000000000000000000000,
200000200000000000100000000000100000000000500000,
000000000000000000000008000000000000300000300000,
#GOGOSTART
300000000000200000200000200000000000300000300000,
300000000000200000200000200000000000000000000000,
100000000000200000000000100000000000200000000000,
500000000000000000000008000000000000300000300000,
300000000000200000200000200000000000300000300000,
300000000000200000200000200000000000000000000000,
100000100000000000100000000000100000000000100000,
000000000000100000100000000000200000000000500000,
000000000000000000000000000000000000000008000000,
000000200000200000000000200000200000000000300000,
#GOGOEND
000000000000000000000000000000000000000000000000,
000000000000000000000000000000000000100000300000,
000000000000000000000000000000000000000000000000,
000000000000000000000000000000000000000000000000,
#END
COURSE:0
LEVEL:4
BALLOON:12
SCOREINIT:610
SCOREDIFF:175
#START
100000000000000000000000200000000000000000000000,
100000000000000000000000200000000000000000000000,
000000000000000000000000000000000000000000000000,
000000000000000000000000000000000000000000000000,
100000000000000000000000200000000000000000000000,
100000000000000000000000200000000000000000000000,
200000000000200000000000200000000000000000000000,
100000000000100000000000100000000000000000000000,
#GOGOSTART
100000000000100000000000100000000000000000000000,
100000000000000000100000000000000000000000000000,
100000000000100000000000100000000000000000000000,
500000000000000000000000000008000000000000000000,
100000000000100000000000100000000000000000000000,
100000000000000000100000000000000000000000000000,
100000000000100000000000100000000000000000000000,
500000000000000000000008000000000000000000000000,
200000000000000000200000000000000000200000000000,
000000200000000000000000200000000000000000000000,
200000000000000000200000000000000000200000000000,
200000000000000000200000000000000000200000000000,
#GOGOEND
000000000000100000000000100000000000000000000000,
100000000000000000100000000000000000000000000000,
100000000000100000000000100000000000000000000000,
100000000000000000000000000000000000000000000000,
000000000000100000000000100000000000000000000000,
100000000000000000100000000000000000000000000000,
100000000000100000000000100000000000000000000000,
500000000000000000000000000000000008000000000000,
#GOGOSTART
000000000000100000000000100000000000000000500000,
000000000000000000000000000000000008000000000000,
000000000000100000000000100000000000000000500000,
000000000000000000000000000000000008000000000000,
000000000000100000000000100000000000000000500000,
000000000000000000000000000000000008000000000000,
000000000000100000000000100000000000000000200000,
000000200000000000200000000000200000000000000000,
#GOGOEND
000000000000000000000000000000000000000000000000,
000000000000200000000000200000000000200000000000,
000000000000000000000000000000000000000000000000,
000000000000100000000000100000000000100000000000,
000000000000000000000000000000000000000000000000,
000000000000200000000000200000000000200000000000,
000000000000000000000000000000000000000000000000,
000000000000200000000000200000000000000000000000,
100000000000000000100000000000000000000000000000,
100000000000000000100000000000000000000000000000,
200000000000000000200000000000000000000000000000,
200000000000000000200000000000000000000000000000,
100000000000000000100000000000100000000000000000,
100000000000000000100000000000100000000000000000,
200000000000000000200000000000200000000000000000,
100000000000000000000000100000000000000000300000,
000000000000000000000000000000000000400000000000,
000000000000000000000000000000000000400000000000,
000000000000000000000000000000000000300000000000,
#GOGOSTART
600000000000000008000000000000000000300000000000,
600000000000000000000000000008000000000000000000,
100000000000100000000000100000000000000000000000,
500000000000000008000000000000000000300000000000,
600000000000000008000000000000000000300000000000,
600000000000000000000000000008000000000000000000,
100000000000000000100000000000000000000000500000,
000000000000000008000000000000000000300000000000,
600000000000000008000000000000000000300000000000,
600000000000000000000000000008000000000000000000,
100000000000100000000000100000000000000000000000,
500000000000000008000000000000000000300000000000,
600000000000000008000000000000000000300000000000,
600000000000000000000000000008000000000000000000,
200000000000000000200000000000000000000000200000,
000000000000100000000000000000100000000000500000,
000000000000000000000000000000000000000000000000,
000000000008000000000000000000000000000000000000,
#GOGOEND
300000000000300000000000300000000000000000000000,
300000000000000000300000000000000000000000000000,
300000000000300000000000300000000000000000000000,
300000000000000000300000000000000000000000000000,
900000000000000000000000000000000000000000000000,
000000000000000000000000900000000000000000000000,
800000000000000000000000000000000000000000000000,
000000000000000000000000000000000000000000000000,
100000000000000000000000100000000000000000000000,
500000000000000008000000000000000000300000000000,
300000000000000000000000000000000000400000000000,
400000000000000000000000000000000000000000000000,
100000000000000000100000000000000000000000500000,
000000000000000008000000000000000000300000000000,
#GOGOSTART
600000000000000008000000000000000000300000000000,
600000000000000000000000000008000000000000000000,
100000000000000000000000100000000000000000000000,
500000000000000008000000000000000000300000000000,
600000000000000008000000000000000000300000000000,
600000000000000000000000000008000000000000000000,
100000000000000000100000000000000000000000100000,
000000000000100000000000000000100000000000100000,
000000500000000000000000000000000008000000000000,
000000500000000000000000000000000008000000000000,
#GOGOEND
000000000000000000000000000000000000000000000000,
000000000000000000000000000000000000000000300000,
000000000000000000000000000000000000000000000000,
000000000000000000000000000000000000000000000000,
#END