Files
ESE/09 Namco Original/Yozakura Ryouran Kanshasai/Yozakura Ryouran Kanshasai.tja
T
2023-06-15 19:15:39 -05:00

520 lines
8.7 KiB
Plaintext

//TJADB Project
TITLE:Yozakura Ryouran Kanshasai
TITLEJA:夜桜繚乱感謝祭
SUBTITLE:--Yuuji Masubuchi
BPM:170
WAVE:Yozakura Ryouran Kanshasai.ogg
OFFSET:-1.691
DEMOSTART:11.579
COURSE:Hard
LEVEL:8
#START
#SCROLL 0.7
000000000000000000000000000000000000000000000000,
100000000200100000200000100000000200100000200000,
100000000200100000200000100000000000100000100000,
#SCROLL 0.85
100000000200100000200000100000000200100000200000,
100000000200100000200000100000000000000000000000,
#SCROLL 1
100000000300000000100100100000000300000000100100,
100010001000100010001000500000000000000008000000,
#GOGOSTART
#SCROLL 1.5
100000200200200000200000100000100000000000100000,
100000000000000000000000100000200200100000200000,
100000200100100000200000100000200100100000200000,
100200000200100000200000100200200000100000200000,
#SCROLL 1.75
100000200200200000200000100000200000000000200000,
100000000000000000000000200000200200100000200000,
100000200100100000200000100000200100100000200000,
#SCROLL 6
500000000000000000000000000000000008000000000000,
#SCROLL 2
100000200200200000200000100000100000000000100000,
100000000000000000000000100000200200100000200000,
100000200100100000200000100000200100100000200000,
100200000200100000200000100200200000100000200000,
#SCROLL 2.25
100000200200200000200000100000200000000000200000,
100000000000000000000000200000200200100000200000,
#SCROLL 2.5
100000200200100000200000100000200200100000200000,
#GOGOEND
#MEASURE 2/4
300030003000300030003000,
#SCROLL 6
600000000000000000000000,
000000000008000000000000,
#BPMCHANGE 148
#SCROLL 2
400000000000000000000000,
#MEASURE 4/4
#SCROLL 0.5
100000200200200000200000100000100000000000100000,
100000000200200000200000100000100100200000200000,
100000000200200000200000100000200000100000000000,
100000200200100000200200100200100000200000000000,
100000200200200000200000100000200000000000200000,
100000000200200000200000200000200200100000200000,
#BPMCHANGE 170
#SCROLL 2
100000200000000000200000100000200000000000200000,
#SCROLL 6
500000000000000000000000000000000008000000000000,
#SCROLL 0.8
100000200200200000200000100000100000000000100000,
100000000200200000200000100000100100200000200000,
100000000200200000200000100000200000100000000000,
100000200200100000200200100200100000200000000000,
#SCROLL 0.5
100000200200200000200000100000200000000000200000,
#BPMCHANGE 148
100200000200200000200000200000200200100000200000,
100000100000200200200000100000100000200200200000,
100000000000000000000000200000000000000000000000,
#GOGOSTART
#SCROLL 1
100000100000100100200200200000200200200000200000,
100000100000200200100100200000100100200000200100,
100000100000100100200200200200100100200000200200,
100000000200200000200000100100200000200000000000,
100000100000100100200200200000200200200000200000,
100000100000200200100100200000100100200000200100,
100000100000100100200200200200100100200000200000,
400000000000400000000000300000000000300000000000,
#BPMCHANGE 170
#SCROLL 1.5
100000200200100000200000100000100100200000100000,
100000200200100000200000100000100100200000200000,
100000200100100000200000100000200100100000200200,
#SCROLL 0.5
200000100000200200100100200200100100200000100100,
#SCROLL 1.5
100000200200100000200000100000100100200000100000,
100000200200100000200000100000200100100000100000,
#MEASURE 3/4
#SCROLL 3
100010001000200020002000100010001000,
#MEASURE 9/16
111221112,
#MEASURE 3/8
#SCROLL 4
211111111,
#MEASURE 1/4
000000000000,
#MEASURE 2/4
600000000000000008000000,
#MEASURE 4/4
#SCROLL 1.5
100000200200100000200000100000100100200000200000,
100000200200100000200000100000100100200000200000,
100000200100100000200000100000200100100000200200,
#SCROLL 0.5
200000100000200200100100200200100100200000100100,
#SCROLL 1.5
100000200200100000200000100000100100200000100000,
100000200200100000200000100000200100100000100000,
100000200100100000200000100000200100100000200000,
#GOGOEND
#SCROLL 3
200200000200200000200200100500000000008000000000,
#SCROLL 1
100000100000000000100100100000100000000000100000,
#GOGOSTART
200000200000000000200200200000200000000000000000,
300000300000000000300000300000300000000000300000,
400000300000300000300000400000300000400000000000,
100000100000000000100100100000100000000000100000,
200000200000000000200200200000200000000000000000,
300000300000000000300000300000300000000000300000,
400000000000400000000000202020202020200000000000,
#SCROLL 1.5
100100000100100000100100000100100000100000100000,
200200000200200000200200000200200000200000200000,
100100000100100000100100000100100000100000100000,
200200000200200000200200000200200000200000200000,
#SCROLL 1.75
100100000100200000100100000100200000100000200000,
100200000200200000100200000200200000200000200000,
100100000100200000100100000100200000100000200000,
100200000200200000100200000200200000200000200000,
#SCROLL 2
100000100000100000100000100000100000200000200000,
200000200000200000200000100000100000100000100000,
100000100000200000200000200000200000200000200000,
100100000100200000100100000100200000100100200100,
#SCROLL 2.5
100200000200200000100200000200200000100200200100,
100100000100200000100100000100200000100100200100,
100200000200200000100200000200200000100200200000,
#GOGOEND
#SCROLL 0.5
300000003000000030000000400000004000000040000000,
#MEASURE 2/4
300000003000000030000000,
#BPMCHANGE 145.63
#SCROLL 4
000000000000000000000000,
#MEASURE 4/4
#BPMCHANGE 170
#SCROLL 0.5
300000000000000000000000000000000000000000000000,
#END
COURSE:Normal
LEVEL:7
#START
#SCROLL 0.7
,
1111,
1001101010000000,
#SCROLL 0.85
1111,
1001101010000000,
#SCROLL 1
330330,
600000000000000000000000000000000000008000000000,
#GOGOSTART
#SCROLL 1.5
10001101,
10001120,
11,
10101110,
#SCROLL 1.75
20002202,
20002220,
22,
#SCROLL 6
500000000000000000000000000000000000008000000000,
#SCROLL 2
10001101,
10001120,
11,
10101110,
#SCROLL 2.25
20002202,
20002220,
#SCROLL 2.5
22,
#GOGOEND
#MEASURE 2/4
33,
#SCROLL 6
600000000000000000000000,
000000000008000000000000,
#BPMCHANGE 148
#SCROLL 2
4,
#MEASURE 4/4
#SCROLL 0.5
10001101,
10001120,
11,
10101110,
20002202,
20002220,
#BPMCHANGE 170
#SCROLL 2
22,
#SCROLL 6
500000000000000000000000000000000000008000000000,
#SCROLL 0.8
10001101,
10001101,
10001000,
10101110,
#SCROLL 0.5
20002202,
#BPMCHANGE 148
20002202,
22002200,
500000000000000000000000000000000000008000000000,
#GOGOSTART
#SCROLL 1
11220000,
22110000,
11220000,
3044,
11220000,
22110000,
33440000,
4433,
#BPMCHANGE 170
#SCROLL 1.5
10101101,
10101101,
10101110,
#SCROLL 0.5
10001010,
#SCROLL 1.5
20202202,
20202202,
#MEASURE 3/4
#SCROLL 3
111,
#MEASURE 9/16
000100000,
#SCROLL 4
#MEASURE 3/8
000100000,
#MEASURE 1/4
000000000000,
#MEASURE 2/4
600000000000000008000000,
#MEASURE 4/4
#SCROLL 1.5
10101101,
10101101,
10101110,
#SCROLL 0.5
10110220,
#SCROLL 1.5
20202202,
20202202,
20202220,
#GOGOEND
#SCROLL 3
200000000000500000000000000000000000008000000000,
#SCROLL 1
11011100,
#GOGOSTART
22022200,
33033300,
40004040,
11011100,
22022200,
33033300,
4444,
#SCROLL 1.5
11101010,
22202020,
11101010,
22202000,
#SCROLL 1.75
20202220,
10101110,
20202202,
10111000,
#SCROLL 2
11111110,
11111110,
11111110,
11111110,
#SCROLL 2.5
22222220,
11111110,
22222220,
#GOGOEND
#SCROLL 0.5
300300,
#MEASURE 2/4
3,
#BPMCHANGE 145.63
#SCROLL 4
,
#MEASURE 4/4
#BPMCHANGE 170
#SCROLL 0.5
3,
#END
COURSE:Easy
LEVEL:5
#START
#SCROLL 0.7
,
1111,
1110,
#SCROLL 0.85
1111,
1110,
#SCROLL 1
330330,
600000000000000000000000000000000000008000000000,
#GOGOSTART
#SCROLL 1.5
10001100,
1011,
11,
1111,
#SCROLL 1.75
20002200,
2022,
22,
#SCROLL 6
500000000000000000000000000000000000008000000000,
#SCROLL 2
10001100,
1011,
11,
1111,
#SCROLL 2.25
20002200,
2022,
#SCROLL 2.5
22,
#GOGOEND
#MEASURE 2/4
33,
#SCROLL 6
600000000000000000000000,
000000000008000000000000,
#BPMCHANGE 148
#SCROLL 2
4,
#MEASURE 4/4
#SCROLL 0.5
10001100,
1011,
11,
1111,
20002200,
2022,
#BPMCHANGE 170
#SCROLL 2
22,
#SCROLL 6
500000000000000000000000000000000000008000000000,
#SCROLL 0.8
10001100,
1011,
11,
1111,
#SCROLL 0.5
20002200,
#BPMCHANGE 148
2022,
2022,
500000000000000000000000000000000000008000000000,
#GOGOSTART
#SCROLL 1
11110000,
22220000,
33330000,
4044,
11110000,
22220000,
33330000,
4433,
#BPMCHANGE 170
#SCROLL 1.5
10101100,
10101100,
10101000,
#SCROLL 0.5
1011,
#SCROLL 1.5
20202200,
20202200,
#MEASURE 3/4
#SCROLL 3
111,
#MEASURE 9/16
000100000,
#SCROLL 4
#MEASURE 3/8
000100000,
#MEASURE 1/4
000000000000,
#MEASURE 2/4
600000000000000008000000,
#MEASURE 4/4
#SCROLL 1.5
10101100,
10101100,
1111,
#SCROLL 0.5
10110220,
#SCROLL 1.5
20202200,
20202200,
2222,
#GOGOEND
#SCROLL 3
200000000005000000000000000000000000008000000000,
#SCROLL 1
11011000,
#GOGOSTART
22022000,
33033000,
4044,
11011000,
22022000,
33033000,
4444,
#SCROLL 1.5
1111,
2222,
1111,
2220,
#SCROLL 1.75
2222,
1111,
2222,
1110,
#SCROLL 2
11101110,
11101110,
11101110,
1111,
#SCROLL 2.5
2222,
1111,
2220,
#GOGOEND
#SCROLL 0.5
300300,
#MEASURE 2/4
3,
#BPMCHANGE 145.63
#SCROLL 4
,
#MEASURE 4/4
#BPMCHANGE 170
#SCROLL 0.5
3,
#END