487 lines
12 KiB
Plaintext
487 lines
12 KiB
Plaintext
//TJADB Project
|
|
TITLE:Nijiiro 2020 Meijin
|
|
SUBTITLE:--Tenkyuu no Ritsu & Ai want U & Rasen Shuukai Kidou
|
|
BPM:100
|
|
WAVE:Rasen Shuukai Kidou.ogg
|
|
DEMOSTART:68.919
|
|
|
|
COURSE:Dan
|
|
LEVEL:10
|
|
BALLOON:5,2,2,2,2,7
|
|
EXAM1:g,100,100,m
|
|
EXAM2:jg,30,15,l
|
|
EXAM3:jb,5,2,l
|
|
|
|
|
|
#START
|
|
|
|
|
|
#NEXTSONG Tenkyuu no Ritsu,Capchii,ナムコオリジナル,Tenkyuu no Ritsu.ogg,420,90
|
|
EXAM4:r,4,5,m
|
|
|
|
|
|
#DELAY 2.421
|
|
10000000100010002000000020002022,
|
|
10001000100010002000000020002022,
|
|
10000010000020000000100010002011,
|
|
100000000000222222222222,
|
|
10000000100020001000000010002022,
|
|
10002000100020001000000010002022,
|
|
100000200000100000200000100000200000100000200000100010001000200020002000100010001000200200200200,
|
|
#BPMCHANGE 200
|
|
13024013,
|
|
000200400000111100400000,
|
|
3000101020112210,
|
|
201010200000200000100000200200200200100000000000,
|
|
000100100100211200100200,
|
|
211200100200100000200000,
|
|
1000101022112010,
|
|
202010100000200000100000200200200200100000000000,
|
|
0021212120201020,
|
|
100000200100200000100000000000100000202020200000,
|
|
3000101020112210,
|
|
211200200100202020100000,
|
|
000100100100211200100200,
|
|
211200100200100000200000,
|
|
1000101022112010,
|
|
202010100000200000100000200200200200100000000000,
|
|
0021212120201020,
|
|
1212121210004000,//25
|
|
|
|
#GOGOSTART
|
|
3002102010112212,
|
|
1002102011112211,
|
|
200200100100202010101010100000000200100000200000,
|
|
100000000200200000200000100000000000500008000000,
|
|
1002102010112212,
|
|
100000000200100000200000202010100100200200100100,
|
|
1122111120021020,//32
|
|
|
|
#GOGOEND
|
|
1001001010004000,//33
|
|
|
|
#GOGOSTART
|
|
3002102010112212,
|
|
1002102011112211,
|
|
200200100100202010101010100000000200100000200000,
|
|
100000000200200000200000100000000000500008000000,
|
|
1002102010112212,
|
|
100000000200100000200000202010100100200200100100,
|
|
100100200200101010101010200000000200100000200000,
|
|
3004004030004000,//41
|
|
|
|
#BPMCHANGE 100
|
|
#GOGOEND
|
|
200000000000000000000222200000000000000000000222,
|
|
2,
|
|
200000000000000000000222200000000000000000000222,
|
|
2,
|
|
101010101010101010100100202020202020202020200000,
|
|
101010101010202020200200101010101010202020200000,
|
|
101010101010101010100100202020202020202020200000,
|
|
101010101010202020200200101010101010202020200000,
|
|
300000000000000000000000202000000000000000200200200000200200000200200000200000000200000000200000,
|
|
20000000221221200000000022222222,
|
|
#BPMCHANGE 200
|
|
#SCROLL 0.59
|
|
1000200012221220,
|
|
#SCROLL 0.71
|
|
1002102010002000,
|
|
#SCROLL 0.84
|
|
1111,
|
|
#SCROLL 1
|
|
400000000200000000200000202020200000300000200000,//55
|
|
|
|
#GOGOSTART
|
|
3021012011221020,
|
|
100000200100000100200000101010100100200000200000,
|
|
100000200100000100200000202010100000200000100000,
|
|
100000200100000200100000202020100100200200100100,
|
|
2012012022112122,
|
|
100000200100000100200000100000202020100100200000,
|
|
100000200100000200200000100100200200101010101010,//62
|
|
|
|
#GOGOEND
|
|
200000000200000000200000202020200000300000200000,//63
|
|
|
|
#GOGOSTART
|
|
3021012011221020,
|
|
100000200100000100200000101010100100200000200000,
|
|
100000200100000100200000202010100000200000100000,
|
|
100000200100000200100000202020100100200200100100,
|
|
200200200200100100100100200200200200101010100100,
|
|
200200100100200200100100200200200200101010101010,
|
|
200200200200200200200200100100200200100010002000,
|
|
2121212122222222,//71
|
|
|
|
#GOGOEND
|
|
10222222,
|
|
202020200000200000200000200200200200200000000000,//73
|
|
|
|
#MEASURE 16/4
|
|
#GOGOSTART
|
|
#SCROLL 1.2
|
|
330440
|
|
#SCROLL 1.44
|
|
330440
|
|
#SCROLL 1.73
|
|
330440
|
|
#SCROLL 2.08
|
|
330440
|
|
#SCROLL 2.5
|
|
330440
|
|
#SCROLL 3
|
|
33,//74
|
|
|
|
#MEASURE 4/4
|
|
#GOGOEND
|
|
4,
|
|
|
|
|
|
#NEXTSONG Ai want U,Kaneko Chiharu,ナムコオリジナル,Ai want U.ogg,300,80
|
|
EXAM4:r,49,52,m
|
|
|
|
|
|
#DELAY 2.787
|
|
#MEASURE 2/4
|
|
#BPMCHANGE 87
|
|
#SCROLL 2
|
|
10000000000000002200000010000000,
|
|
00001000100000002200200020002000,
|
|
10000000000000002200200010000000,
|
|
00001000100010002200000020000000,
|
|
10000000000000002200000010000000,
|
|
00001000100000002200200020002000,
|
|
10000000000010002200200000001000,
|
|
200000000000200000000000200020002000100000000000200200000000100000000000400000000000000000000000,
|
|
#BPMCHANGE 174
|
|
#MEASURE 4/4
|
|
#SCROLL 1
|
|
3002202010022010,
|
|
1002202020022020,
|
|
3002202010022010,
|
|
1002202020002040,
|
|
3012102030121020,
|
|
#MEASURE 13/16
|
|
300000001000200010000000200000003000000010000000
|
|
#BPMCHANGE 43.5
|
|
#SCROLL 4
|
|
0220,
|
|
#BPMCHANGE 174
|
|
#MEASURE 4/4
|
|
#SCROLL 1
|
|
1222112211121111,
|
|
500000000000000008000000100100100000400000000000,
|
|
30000000101010102200000010001000,
|
|
000000000000100000200000100000000000200000000000200200002000000020000000100010001000100000000000,
|
|
10000000100010002200000010001000,
|
|
200000000000100000200000100000000000200000000000200200002000000020000000200020002000100000000000,
|
|
10000000101010102200000010001000,
|
|
000000000000100000200000100000000000200000000000200200002000000020000000100010001000100000000000,
|
|
1010220212102202,
|
|
100100200100200200000200100000100100101010101010,
|
|
#MEASURE 13/16
|
|
700000000000
|
|
#BPMCHANGE 43.5
|
|
#SCROLL 4
|
|
800
|
|
#BPMCHANGE 174
|
|
#SCROLL 1
|
|
100000000000200000001000,
|
|
#MEASURE 4/4
|
|
000201102001,
|
|
002202101202,
|
|
101010202020102020111111,
|
|
#BPMCHANGE 43.5
|
|
#MEASURE 5/8
|
|
#SCROLL 4
|
|
0000
|
|
#BPMCHANGE 174
|
|
#SCROLL 1
|
|
2200000010001000,
|
|
#MEASURE 4/4
|
|
000000000000100000200000100000000000200000000000200200002000000020000000100010001000100000000000,
|
|
100000100000200200000200100200100000101010101010,
|
|
#GOGOSTART
|
|
1002102010210120,
|
|
1002102010210120,
|
|
1002102010210120,
|
|
#MEASURE 5/8
|
|
10021020
|
|
#GOGOEND
|
|
#BPMCHANGE 43.5
|
|
#SCROLL 4
|
|
00,
|
|
#GOGOSTART
|
|
#BPMCHANGE 174
|
|
#MEASURE 4/4
|
|
#SCROLL 1
|
|
300000000200100000200000102020200000100000200000,
|
|
100200200200100000200000101010100000700000800000,
|
|
300000000200100000200000102020200000100100200200,
|
|
100000200020100020002000100200200200101010100000,
|
|
300000000200100000200000102020200000100000200000,
|
|
100200200200100000200000101010100000700000800000,
|
|
#GOGOEND
|
|
30000000000000002200000010001000,
|
|
00001000202010102200000020000000,
|
|
#GOGOSTART
|
|
300000000200100000200000102020200000100000200000,
|
|
100200200200100000200000101010100000700000800000,
|
|
300000000200100000200000102020200000100100200200,
|
|
#MEASURE 13/16
|
|
100000200020100020002000101010101010
|
|
#GOGOEND
|
|
#BPMCHANGE 43.5
|
|
#SCROLL 4
|
|
200,
|
|
000
|
|
#GOGOSTART
|
|
#BPMCHANGE 174
|
|
#SCROLL 1
|
|
300000000000102020200000100000200000,
|
|
#MEASURE 4/4
|
|
100200200200100000200000101010100000700000800000,
|
|
#GOGOEND
|
|
30000000000000002200000010001000,
|
|
#MEASURE 41/64
|
|
00000000100000002000200020002000
|
|
#BPMCHANGE 87
|
|
#SCROLL 2
|
|
22
|
|
#BPMCHANGE 43.5
|
|
#SCROLL 4
|
|
0000000,
|
|
#GOGOSTART
|
|
#BPMCHANGE 174
|
|
#MEASURE 4/4
|
|
#SCROLL 1.22
|
|
1112012221021112,
|
|
0020111211221222,
|
|
100000200200000000500000000000000008000000200100,
|
|
100000200200100100200100100000200000202020200100,
|
|
1112012221021112,
|
|
0010211122112221,
|
|
000000000000500000000000000008000000100000200200,
|
|
100200200100200200100200200100200200101010101010,
|
|
2001201222102112,
|
|
0020111211221222,
|
|
100000200200000000500000000000000008000000200100,
|
|
100000200200100100200100100000200000202020200100,
|
|
1112012221021112,
|
|
000000100000200200100100200200200100500000008000,
|
|
0211221122112211,
|
|
000200200100200200100200200100200200101010101010,
|
|
#GOGOEND
|
|
#BPMCHANGE 43.5
|
|
#MEASURE 13/16
|
|
#SCROLL 4
|
|
000
|
|
#GOGOSTART
|
|
#BPMCHANGE 174
|
|
#SCROLL 1
|
|
300000000200100000202020100000200000,
|
|
#MEASURE 4/4
|
|
100000200100100200000100200000100000201010200000,
|
|
1011201020122010,
|
|
200000100100200000101010200000200000100000202020,
|
|
100000200000100200000200100000202020100000200000,
|
|
100000200100100200000100200000100000201010200000,
|
|
3020112030201220,
|
|
100100200200100100200200101010101010200000000000,
|
|
#GOGOEND
|
|
#MEASURE 13/16
|
|
200000002000000020000000100000001000000010000000
|
|
#BPMCHANGE 43.5
|
|
#SCROLL 4
|
|
200200000000
|
|
#GOGOSTART
|
|
#BPMCHANGE 174
|
|
#SCROLL 1
|
|
300000000000000000000000200000002000000020000000100000000000000000000000200000000000000000000000,
|
|
#MEASURE 4/4
|
|
100000200100100200000100200000100000201010200000,
|
|
1011201020122010,
|
|
200000100100200000101010200000200000100000202020,
|
|
100000200100100200000200100100200000100000201010,
|
|
200000100200200100000100200200100000102020100000,
|
|
3002102030021010,
|
|
3002102030021010,
|
|
3012102210121022,
|
|
#MEASURE 5/8
|
|
12121122
|
|
#GOGOEND
|
|
#BPMCHANGE 43.5
|
|
#SCROLL 4
|
|
00,
|
|
#GOGOSTART
|
|
#BPMCHANGE 174
|
|
#MEASURE 4/4
|
|
#SCROLL 1.22
|
|
3022012030220120,
|
|
#MEASURE 13/16
|
|
101020201010202010201020
|
|
#GOGOEND
|
|
#BPMCHANGE 43.5
|
|
#SCROLL 4
|
|
02,
|
|
#GOGOSTART
|
|
#BPMCHANGE 174
|
|
#MEASURE 4/4
|
|
#SCROLL 1.5
|
|
1211212211212212,
|
|
#MEASURE 5/8
|
|
111111111111
|
|
#GOGOEND
|
|
#BPMCHANGE 43.5
|
|
#SCROLL 6
|
|
200,
|
|
#BPMCHANGE 87
|
|
#MEASURE 2/4
|
|
#SCROLL 2
|
|
10000000000000002200000010000000,
|
|
00001000100000002200200020002000,
|
|
10000000000000002200200010000000,
|
|
00000000000010002200200020000000,
|
|
10000000100000002200000010000000,
|
|
00001000100000002200200020002000,
|
|
10000000100010002200200010000000,
|
|
200000000000200000000000200020002000100000000000200200000000100000000000400000000000000000000000,
|
|
|
|
|
|
#NEXTSONG Rasen Shuukai Kidou,BlackY feat. Risa Yuzuki,ナムコオリジナル,Rasen Shuukai Kidou.ogg,1040,0,4,
|
|
EXAM4:r,6,7,m
|
|
|
|
|
|
#DELAY 1.569
|
|
#BPMCHANGE 284
|
|
#SCROLL 1
|
|
#MEASURE 7/4
|
|
4000102000201020001120102000,
|
|
400000000000100000200000100000002000000020000000200000200200200000200000100000100000,
|
|
#MEASURE 6/4
|
|
400000000100000000000000000000202020,
|
|
200020220220,
|
|
|
|
#MEASURE 8/4
|
|
3002120212201020,
|
|
1202120210221220,
|
|
1202120212201020,
|
|
100000200000000000200000100000200000000000200000100010001000100000200000100100100000200000200000,
|
|
|
|
30002011201020100010200010203000,
|
|
200000100100200000100000200000100000000000100000400000000000100010001000200000100000200000200000,
|
|
4014040401220404,
|
|
000000100100200000000000200020002000100000100000100000100000100000200200100000100000000000000000,
|
|
|
|
3000000200220220,
|
|
000000202020200000200200000200200200100100200200,
|
|
1001002200220021,
|
|
100200200200202020200200100200200100200200100100,
|
|
|
|
30002011201020100010200010203000,
|
|
200000100100200000100000200000100000000000100000400000000000100010001000200000200000100000100000,
|
|
3011202012212010,
|
|
2120102210211130,
|
|
|
|
0011400010010010,
|
|
0100100122212211,
|
|
30002011201020100010200010203000,
|
|
20112010201000102220101022102020,
|
|
|
|
#MEASURE 7/4
|
|
30012010002000,
|
|
3000001000003000000022201010,
|
|
30012010002001,
|
|
4000104000112020101110102020,
|
|
|
|
300000000100200000200000200100202020200100,
|
|
30120110302021,
|
|
#MEASURE 6/4
|
|
302120101201,
|
|
300000200000300022202010,
|
|
|
|
#MEASURE 7/4
|
|
10012021212021,
|
|
3000201020104000201022201010,
|
|
30212021222211,
|
|
100020002000200200100200202020100100200200,
|
|
|
|
300000200100100100200100100100200100202020,
|
|
100200200100200200100100200000101010200200,
|
|
#MEASURE 6/4
|
|
400101221120,
|
|
400000100200000100202020101010201010,
|
|
|
|
201021012010,
|
|
400000100000200100000100200100202020,
|
|
100100000100000100000100101010200100,
|
|
#MEASURE 8/4
|
|
100040004000400040004000700000000000000800200200,
|
|
|
|
#GOGOSTART
|
|
30000020100020102020001020102210,
|
|
100000000000000000200000100000000000200000100000200000200200100000200000100010001000200000200000,
|
|
10000020100020102020001020102210,
|
|
100000000000000000200000100000000000200000100000200000100100200000000000200020002000100000100000,
|
|
|
|
30000020100020102020001020102210,
|
|
100000000000000000200000100000000000200000100000200000200200100000200000100010001000200000200000,
|
|
1021210101202101,
|
|
20202220202210104000004000004000,
|
|
#GOGOEND
|
|
|
|
00000010
|
|
#GOGOSTART
|
|
400020102020001020102210,
|
|
100000000000000000200000100000000000200000100000200000200200100000200000100010001000200000200000,
|
|
10000020100020102020001020102210,
|
|
101010101010201020112020,
|
|
|
|
3020202110102010,
|
|
3021202112102101,
|
|
3020202110102010,
|
|
100000200000200000100000200000100000200000100000200020002000100000100000100100100000200000100000,
|
|
|
|
3020102210220101,
|
|
4010122101010021,
|
|
400000000100000000100000000100000000200020001000,
|
|
300000000000200000000002200000100002200200100000,
|
|
#GOGOEND
|
|
|
|
#MEASURE 7/4
|
|
3300000,
|
|
200000000000200000000200000000202020200000,
|
|
300300000000000000011,
|
|
100000100100100000100100100100101010200200,
|
|
|
|
30302101202211,
|
|
30302101202210,
|
|
222111211222111222111,
|
|
#MEASURE 13/8
|
|
200000000000100000200000000000100100200000000000100000200020002000200000200000,
|
|
|
|
#MEASURE 15/8
|
|
100000000000100000200000000000200000100000000000200000100000100100200000000000200020002000,
|
|
|
|
#MEASURE 8/4
|
|
#GOGOSTART
|
|
10000010001020101010201010112010,
|
|
10102010202010101120101020112020,
|
|
100000000000100000200000200020002000100000000000200000100000100000100000200200100000200000100000,
|
|
202020100000100000200100202020100000200200200300,
|
|
|
|
00112010101020102010201120200030,
|
|
000000100100200000200000100000200000200000100000200020002000100000100000100000100000200000000000,
|
|
20101020101020111020111020111010,
|
|
202020200200100100201010202020101010201010200200,
|
|
|
|
102020200300000300000300000200200300000300000300,
|
|
000022100000
|
|
#GOGOEND
|
|
000000000000,
|
|
|
|
|
|
#END
|
|
|