Files
2026-04-23 15:59:59 -05:00

576 lines
5.9 KiB
Plaintext
Raw Permalink Blame History

This file contains ambiguous Unicode characters
This file contains Unicode characters that might be confused with other characters. If you think that this is intentional, you can safely ignore this warning. Use the Escape button to reveal them.
// Makotora's Database
TITLE:Faith is for the Transient People ~ Jehovah's YaHVeH
TITLEJA:信仰は儚き人間の為に ~ Jehovah's YaHVeH
SUBTITLE:-- Demetori from "Touhou Project"
SUBTITLEJA:Demetori「Touhou Project」より
BPM:220
WAVE:Faith is for the Transient People ~ Jehovah's YaHVeH.ogg
PREIMAGE:Faith is for the Transient People ~ Jehovah's YaHVeH.png
OFFSET:-1.091
DEMOSTART:45.8183
MAKER:Makotora
COURSE:Edit
LEVEL:10.5
BALLOON:5,5,5,5
NOTESDESIGNER4:Makotora
#START
3,
,
30030030,
000000000000200200100100200010001000200010001000,
2,
100000000112,
2000101010101011,
2211221120000000,
#GOGOSTART
1020112010201122,
1020112011201120,
1020112010201122,
1020112011201120,
1022101210112010,
1022101210112010,
2221112221112211,
2221112211122211,
#GOGOEND
2022,
1011102010111020,
1020112010221020,
1022201022205000,
0000000080221111,
1000101020102212,
1000202010201121,
2000201110222010,
2222111122221111,
1011102010111020,
1020112010221020,
1022201022205000,
0000000080221111,
1000102010102212,
1000201020201121,
2000201110222010,
2222111122221111,
2010201121012010,
2010200120112110,
2010201121012010,
2413,
2010201121012010,
2010200120112110,
2221112221112212,
1324,
#GOGOSTART
1020112010221020,
1022101210201122,
1020112010221020,
3000222212121111,
1020112010221020,
1022101210201122,
1021112011211020,
5008,
1020112010221020,
1022101210201122,
1020112010221020,
3022211122211111,
2011211021112011,
2110211120111222,
1022201022201020,
7878,
1020112010221120,
1022101210201122,
1020112010221120,
3000222212121111,
1020112010221120,
1022101210201122,
1021112011211020,
5008,
1020112010221120,
1022101210201122,
1020112010221120,
3022211122211111,
2011211021112011,
2110211120111222,
1022201022201020,
7878,
#GOGOEND
1020112010201122,
1020112011201120,
1020112010201122,
1020112011201120,
1022101210112010,
2011202120221020,
1011101020222020,
5008,
1111111111111111,
1111111111111111,
1111111111111111,
1122112111221121,
1111111111111111,
1111111111111111,
2221112221112211,
2222121211212212,
#GOGOSTART
1111201020012010,
2001201020002212,
1111201020012010,
2001201020002122,
1111203000304011,
2221112211112111,
2111112211112111,
1122111122212222,
#GOGOEND
10010030,
#END
COURSE:Oni
LEVEL:9.5
NOTESDESIGNER3:Makotora
#START
3,
,
30030030,
,
4,
3,
40111111,
41414000,
#GOGOSTART
1020102010201120,
1020102010201122,
1020102010201120,
1020102010201122,
1010101110201020,
1010101110201020,
5,
,
#GOGOEND
8,
11211120,
11210121,
10222250,
0000000080001111,
1000101020102011,
1000202010201022,
20221120,
5008,
11211120,
11210121,
10222250,
0000000080001111,
1000101020102011,
1000202010201022,
20221120,
5008,
20202121,
2000201120102000,
20202121,
2220111022201110,
20202121,
2000201120102000,
5008,
1324,
#GOGOSTART
1020102011201022,
10212120,
1020102011201022,
10212120,
1020102011201022,
10212120,
1110101011101010,
2220202022202020,
1020102011201022,
10212120,
1020102011201022,
10212120,
1110101020102010,
1110101020102010,
1110102011101020,
5008,
1020102011201022,
10212120,
1020102011201022,
10212120,
1020102011201022,
10212120,
1110101011101010,
2220202022202020,
1020102011201022,
10212120,
1020102011201022,
10212120,
1110101020102010,
1110101020102010,
1110102011101020,
5008,
#GOGOEND
1020102010201120,
1020102010201122,
1020102010201120,
1020102010201122,
1010101110201020,
1010101110201020,
1010101110201020,
5008,
1110101010101010,
1110101010101010,
1110101010101010,
1110202011102020,
1110101010101010,
1110101010101010,
5,
0008,
#GOGOSTART
1111201020002010,
20212022,
1111201020002010,
20212022,
1111201000102000,
2220201110102000,
1111101111102222,
2022222011221122,
#GOGOEND
10010030,
#END
COURSE:Hard
LEVEL:8
NOTESDESIGNER2:Makotora
#START
3,
,
30030030,
,
4,
3,
4,
4440,
#GOGOSTART
12121210,
12121210,
12121210,
12121210,
1010101010111000,
2020202020222000,
5,
,
#GOGOEND
8,
11201120,
10210120,
10222050,
08,
10112120,
10221210,
20221120,
5008,
11201120,
10210120,
10222050,
08,
10112120,
10221210,
20221120,
5008,
20202121,
20212020,
20202121,
2121,
20202121,
20212020,
5008,
1324,
#GOGOSTART
12121210,
1122,
12121210,
1122,
12121210,
1122,
11111110,
22222220,
12121210,
1122,
12121210,
1122,
10102120,
10102120,
11102220,
5008,
12121210,
1122,
12121210,
1122,
12121210,
1122,
11111110,
22222220,
12121210,
1122,
12121210,
1122,
10102120,
10102120,
11102220,
5008,
#GOGOEND
12121210,
12121210,
12121210,
12121210,
1010101010111000,
2020202020222000,
5,
0008,
#GOGOSTART
11111111,
11111111,
11111111,
11221122,
11111111,
11111111,
5,
0008,
#GOGOEND
#GOGOSTART
11212020,
20202022,
11212020,
20202022,
11210120,
22211120,
1110001110002220,
0022200011102220,
#GOGOEND
30030030,
#END
COURSE:Normal
LEVEL:7
NOTESDESIGNER1:Makotora
#START
3,
,
30030030,
,
4,
3,
4,
4440,
#GOGOSTART
1111,
1111,
2222,
2222,
1111,
2222,
5,
,
#GOGOEND
8,
1212,
10210120,
1225,
08,
1122,
1122,
1122,
5008,
1212,
10210120,
1225,
08,
1122,
1122,
1122,
5008,
2222,
2220,
2222,
2121,
2222,
2220,
5008,
1324,
#GOGOSTART
12121000,
1122,
12121000,
1122,
12121000,
1122,
11101010,
22202020,
12121000,
1122,
12121000,
1122,
1022,
1022,
12,
5008,
12121000,
1122,
12121000,
1122,
12121000,
1122,
11101010,
22202020,
12121000,
1122,
12121000,
1122,
1022,
1022,
12,
5008,
#GOGOEND
1111,
1111,
2222,
2222,
1111,
2222,
5,
0008,
#GOGOSTART
11101010,
11101010,
11101010,
1212,
11101010,
11101010,
5,
0008,
#GOGOEND
#GOGOSTART
1,
2222,
1,
2222,
1,
5008,
11011022,
02201122,
#GOGOEND
30030030,
#END
COURSE:Easy
LEVEL:5
NOTESDESIGNER0:Makotora
#START
3,
,
30030030,
,
4,
3,
4,
4440,
#GOGOSTART
1110,
1110,
2220,
2220,
1110,
2220,
5,
,
#GOGOEND
8,
11,
11,
1115,
08,
12,
12,
12,
5008,
11,
11,
1115,
08,
12,
12,
12,
5008,
2220,
2220,
2220,
2121,
2220,
2220,
5008,
1324,
#GOGOSTART
1110,
1122,
1110,
1122,
1110,
1122,
1111,
2222,
1110,
1122,
1110,
1122,
12,
12,
12,
5008,
1110,
1122,
1110,
1122,
1110,
1122,
1111,
2222,
1110,
1122,
1110,
1122,
12,
12,
12,
5008,
#GOGOEND
1110,
1110,
2220,
2220,
1110,
2220,
5,
0008,
#GOGOSTART
1110,
1110,
2220,
2220,
1110,
2220,
5,
0008,
#GOGOEND
#GOGOSTART
1,
0022,
1,
0022,
1,
5008,
30030040,
04003040,
#GOGOEND
30030030,
#END