generated from DragonRatTiger/Custom-Charts
681 lines
7.9 KiB
Plaintext
681 lines
7.9 KiB
Plaintext
// Makotora's Database
|
|
|
|
TITLE:T+ VS SHARK
|
|
TITLEJA:T+ VS SHARK
|
|
SUBTITLE:--t+pazolite
|
|
SUBTITLEJA:t+pazolite
|
|
|
|
BPM:200
|
|
WAVE:T+ VS SHARK.ogg
|
|
OFFSET:-0.595
|
|
DEMOSTART:106.195
|
|
MAKER:Makotora
|
|
PREIMAGE:T+ VS SHARK.png
|
|
|
|
COURSE:Oni
|
|
LEVEL:10
|
|
BALLOON:15,15,15,15,10,10,15
|
|
NOTESDESIGNER3:Makotora
|
|
|
|
#START
|
|
7,
|
|
8,
|
|
7,
|
|
8,
|
|
7,
|
|
8,
|
|
7,
|
|
8,
|
|
3000202220002020,
|
|
3000222020002020,
|
|
3000202220002020,
|
|
3000222020002020,
|
|
3011202030112020,
|
|
3011212030112120,
|
|
1111111111111110,
|
|
#SCROLL 1.5
|
|
33304440,
|
|
#GOGOSTART
|
|
5080
|
|
#SCROLL 1
|
|
112010221020,
|
|
1120102210201120,
|
|
1022101210221012,
|
|
1022101210212000,
|
|
101000200000101000200000101000200000100100200000,
|
|
202000100000202000100000202000100000200200100000,
|
|
110200110200220100220100,
|
|
#SCROLL 1.5
|
|
50084444,
|
|
#SCROLL 1
|
|
1020112010221020,
|
|
1120102210201120,
|
|
1022101210221012,
|
|
1022101210212000,
|
|
101000200000101000200000101000200000100100200000,
|
|
202000100000202000100000202000100000200200100000,
|
|
101010200200100100200200101010200200100100200200,
|
|
7008,
|
|
#GOGOEND
|
|
#SCROLL 0.75
|
|
1000101110201000,
|
|
1000101110201020,
|
|
1000101110201000,
|
|
1000101110201020,
|
|
#SCROLL 1
|
|
1110101011101010,
|
|
1111101011111010,
|
|
1111111111111110,
|
|
#SCROLL 1.5
|
|
33304440,
|
|
#GOGOSTART
|
|
50000080
|
|
#SCROLL 1
|
|
10222020,
|
|
1022202010201122,
|
|
1022202010222020,
|
|
1120100022121020,
|
|
#SCROLL 1.5
|
|
50000080
|
|
#SCROLL 1
|
|
10222020,
|
|
1022202010201122,
|
|
1022202010222020,
|
|
#GOGOEND
|
|
1000101010002222,
|
|
101010200200100200100200101010200200100200100200,
|
|
111111111000
|
|
#SCROLL 1.5
|
|
4000,
|
|
#GOGOSTART
|
|
#SCROLL 1
|
|
1022202010222020,
|
|
1120100022121020,
|
|
1022202010222020,
|
|
1022202010201122,
|
|
1022202010222020,
|
|
1122121211221212,
|
|
#GOGOEND
|
|
#SCROLL 0.75
|
|
1000102212021020,
|
|
1000102122021020,
|
|
1000102112021020,
|
|
1000102212021020,
|
|
#SCROLL 1
|
|
1110101011101010,
|
|
1111101011111010,
|
|
1111111111111111,
|
|
1
|
|
#SCROLL 1.5
|
|
708,
|
|
#SCROLL 0.75
|
|
2020222020020020,
|
|
0020222020020020,
|
|
2020222020020020,
|
|
0020222020020220,
|
|
2020222020020020,
|
|
0020222020020020,
|
|
2020222020020020,
|
|
0020222020022020,
|
|
1020222020021020,
|
|
0020222010020020,
|
|
1020222020021020,
|
|
0020222010020220,
|
|
1020222020021020,
|
|
0020222010020020,
|
|
1020222020021020,
|
|
0020222010021020,
|
|
#SCROLL 1
|
|
3000202220002020,
|
|
3000222020002020,
|
|
3000202220002020,
|
|
3000222020002020,
|
|
3011202030112020,
|
|
3011212030112120,
|
|
1111111111111110,
|
|
#SCROLL 1.5
|
|
30333040,
|
|
#GOGOSTART
|
|
#SCROLL 1
|
|
110200110200110200110110,
|
|
101000200000101000200000101000200000200200200000,
|
|
110200110200110200110110,
|
|
100200200100200200100200101010100000400000000000,
|
|
101010200200100200100200101010200200100200100200,
|
|
1121221012111011,
|
|
1210221121102220,
|
|
#SCROLL 1.5
|
|
30304440,
|
|
#SCROLL 1
|
|
110110110200110200110110,
|
|
110200110200110200110110,
|
|
110200110200110200110110,
|
|
100200200100200200100200101010100000400000000000,
|
|
101010200200100200100200101010200200100200100200,
|
|
1112221122211122,
|
|
#GOGOEND
|
|
1,
|
|
#SCROLL 1.5
|
|
2202202050008000,
|
|
#GOGOSTART
|
|
#SCROLL 1
|
|
1020112011210120,
|
|
2010221022120210,
|
|
1022102012212020,
|
|
2011201021121010,
|
|
1022102011210210,
|
|
2011201022120120,
|
|
1022102011210210,
|
|
202020200000202020200000200200200200100200100000,
|
|
1020112011210120,
|
|
2010221022120210,
|
|
1022102012212020,
|
|
2011201021121010,
|
|
1121102101202211,
|
|
2212201202102222,
|
|
101010200200100200100200101010200200100200100200,
|
|
101010200200101010200200101010200200101010200200,
|
|
#GOGOEND
|
|
#BARLINEOFF
|
|
7,
|
|
8,
|
|
#SCROLL 1
|
|
10220210,
|
|
#SCROLL 0.9
|
|
22021012,
|
|
#SCROLL 0.8
|
|
10220210,
|
|
#SCROLL 0.7
|
|
22021012,
|
|
#SCROLL 0.6
|
|
10220210,
|
|
#SCROLL 0.5
|
|
22021211,
|
|
#SCROLL 2
|
|
4,
|
|
#END
|
|
|
|
COURSE:Hard
|
|
LEVEL:8
|
|
BALLOON:8,8,8,8,8,10,15
|
|
NOTESDESIGNER2:Makotora
|
|
|
|
#START
|
|
7008,
|
|
,
|
|
7008,
|
|
,
|
|
7008,
|
|
,
|
|
7008,
|
|
,
|
|
30202022,
|
|
30202022,
|
|
30202022,
|
|
30202022,
|
|
30223022,
|
|
30223022,
|
|
1110101011101010,
|
|
33304440,
|
|
#GOGOSTART
|
|
5080
|
|
#SCROLL 1
|
|
102010201110,
|
|
1020102010201110,
|
|
12021202,
|
|
1020002010222000,
|
|
1020102010201110,
|
|
1020102010201110,
|
|
1020102010201110,
|
|
50084444,
|
|
1020102010201110,
|
|
1020102010201110,
|
|
12021202,
|
|
1020002010222000,
|
|
1020102010201110,
|
|
1020102010201110,
|
|
1020102010201110,
|
|
7080,
|
|
#GOGOEND
|
|
#SCROLL 0.75
|
|
10111010,
|
|
10111012,
|
|
10111010,
|
|
10111012,
|
|
#SCROLL 1
|
|
1000101011101010,
|
|
1000101011101010,
|
|
1110101011101010,
|
|
33304440,
|
|
#GOGOSTART
|
|
50000080
|
|
#SCROLL 1
|
|
10222020,
|
|
1022202010201000,
|
|
1022202010222020,
|
|
12102112,
|
|
5000008010222020,
|
|
1022202010201000,
|
|
1022202010222020,
|
|
#GOGOEND
|
|
1000101010002220,
|
|
1110101011101010,
|
|
1110111010004000,
|
|
#GOGOSTART
|
|
1022202010222020,
|
|
12102112,
|
|
1022202010222020,
|
|
1022202010201000,
|
|
1022202010222020,
|
|
1110101022202020,
|
|
#GOGOEND
|
|
#SCROLL 0.75
|
|
10101212,
|
|
10101212,
|
|
10101212,
|
|
10101212,
|
|
#SCROLL 1
|
|
1000101011101010,
|
|
1000101011101010,
|
|
1110101011101010,
|
|
1708,
|
|
#SCROLL 0.75
|
|
2020200020020020,
|
|
0020200020020020,
|
|
2020200020020020,
|
|
0020200020020220,
|
|
2020200020020020,
|
|
0020200020020020,
|
|
2020200020020020,
|
|
0020200020022020,
|
|
12202012,
|
|
0020200010020020,
|
|
12202012,
|
|
0020200010020220,
|
|
12202012,
|
|
0020200010020020,
|
|
12202012,
|
|
02201012,
|
|
#SCROLL 1
|
|
30202022,
|
|
30202022,
|
|
30202022,
|
|
30202022,
|
|
30223022,
|
|
30223022,
|
|
1110101011101010,
|
|
30333040,
|
|
#GOGOSTART
|
|
32323233,
|
|
3020302030202220,
|
|
32323233,
|
|
3003003030004000,
|
|
1110101011101010,
|
|
1110101110101110,
|
|
5008,
|
|
30304440,
|
|
33323233,
|
|
32323233,
|
|
32323233,
|
|
3003003030004000,
|
|
1110101011101010,
|
|
5,
|
|
#GOGOEND
|
|
8,
|
|
2202202050008000,
|
|
#GOGOSTART
|
|
1020102010201110,
|
|
1020102010201110,
|
|
2010201020102220,
|
|
2010201020102220,
|
|
1020102010201110,
|
|
2010201020102220,
|
|
1020102010201110,
|
|
2220222022222000,
|
|
1020102010201110,
|
|
1020102010201110,
|
|
2010201020102220,
|
|
2010201020102220,
|
|
1110102011101020,
|
|
1111102011111020,
|
|
1110202011102020,
|
|
1110222011102220,
|
|
#GOGOEND
|
|
#BARLINEOFF
|
|
7,
|
|
8,
|
|
#SCROLL 1
|
|
10220010,
|
|
#SCROLL 0.9
|
|
22001012,
|
|
#SCROLL 0.8
|
|
10220010,
|
|
#SCROLL 0.7
|
|
22001012,
|
|
#SCROLL 0.6
|
|
10220010,
|
|
#SCROLL 0.5
|
|
22001210,
|
|
4,
|
|
#END
|
|
|
|
COURSE:Normal
|
|
LEVEL:7
|
|
BALLOON:6,6,6,6,6,10,15
|
|
NOTESDESIGNER1:Makotora
|
|
|
|
#START
|
|
7080,
|
|
,
|
|
7080,
|
|
,
|
|
7080,
|
|
,
|
|
7080,
|
|
,
|
|
3022,
|
|
3022,
|
|
3022,
|
|
3022,
|
|
3232,
|
|
3232,
|
|
5008,
|
|
33304440,
|
|
#GOGOSTART
|
|
58101011,
|
|
10101011,
|
|
12020202,
|
|
12020220,
|
|
10101011,
|
|
10101011,
|
|
10101011,
|
|
50084444,
|
|
10101011,
|
|
10101011,
|
|
12020202,
|
|
12020220,
|
|
10101011,
|
|
10101011,
|
|
10101011,
|
|
7080,
|
|
#GOGOEND
|
|
#SCROLL 0.75
|
|
1110,
|
|
10111000,
|
|
1110,
|
|
10111000,
|
|
#SCROLL 1
|
|
10101011,
|
|
10101011,
|
|
10111000,
|
|
33304440,
|
|
#GOGOSTART
|
|
50081022,
|
|
10201210,
|
|
10221022,
|
|
1120,
|
|
50081022,
|
|
10201210,
|
|
10221022,
|
|
#GOGOEND
|
|
1110,
|
|
11101110,
|
|
11111040,
|
|
#GOGOSTART
|
|
10221022,
|
|
1120,
|
|
10221022,
|
|
10201210,
|
|
10221022,
|
|
10222220,
|
|
#GOGOEND
|
|
#SCROLL 0.75
|
|
1110,
|
|
1110,
|
|
1110,
|
|
1110,
|
|
#SCROLL 1
|
|
10101011,
|
|
10101011,
|
|
10111000,
|
|
0708,
|
|
#SCROLL 0.75
|
|
2000000020020020,
|
|
0000000020020020,
|
|
2000000020020020,
|
|
0000000020020020,
|
|
2000000020020020,
|
|
0000000020020020,
|
|
2000000020020020,
|
|
0000000020020020,
|
|
10002012,
|
|
0000000010020020,
|
|
10002012,
|
|
0000000010020020,
|
|
10002012,
|
|
0000000010020020,
|
|
10002012,
|
|
0011,
|
|
#SCROLL 1
|
|
3022,
|
|
3022,
|
|
3022,
|
|
3022,
|
|
3232,
|
|
3232,
|
|
11101110,
|
|
30333040,
|
|
#GOGOSTART
|
|
30303033,
|
|
3333,
|
|
30303033,
|
|
3003003030004000,
|
|
5,
|
|
,
|
|
0008,
|
|
30304440,
|
|
33303033,
|
|
30303033,
|
|
30303033,
|
|
3003003030004000,
|
|
5,
|
|
,
|
|
#GOGOEND
|
|
8,
|
|
2258,
|
|
#GOGOSTART
|
|
10101011,
|
|
10101011,
|
|
20202022,
|
|
20202022,
|
|
10101011,
|
|
20202022,
|
|
10101011,
|
|
5008,
|
|
10101011,
|
|
10101011,
|
|
20202022,
|
|
20202022,
|
|
10101011,
|
|
20202022,
|
|
1212,
|
|
11102220,
|
|
#GOGOEND
|
|
#BARLINEOFF
|
|
7,
|
|
8,
|
|
#SCROLL 1
|
|
1001,
|
|
#SCROLL 0.9
|
|
0011,
|
|
#SCROLL 0.8
|
|
1001,
|
|
#SCROLL 0.7
|
|
0011,
|
|
#SCROLL 0.6
|
|
1001,
|
|
#SCROLL 0.5
|
|
0011,
|
|
4,
|
|
#END
|
|
|
|
COURSE:Easy
|
|
LEVEL:5
|
|
BALLOON:5,5,5,5,5,10,15
|
|
NOTESDESIGNER0:Makotora
|
|
|
|
#START
|
|
7800,
|
|
,
|
|
7800,
|
|
,
|
|
7800,
|
|
,
|
|
7800,
|
|
,
|
|
3020,
|
|
3020,
|
|
3020,
|
|
3020,
|
|
3030,
|
|
3030,
|
|
5008,
|
|
33304440,
|
|
#GOGOSTART
|
|
58101010,
|
|
1111,
|
|
12020202,
|
|
02020220,
|
|
1111,
|
|
1111,
|
|
1111,
|
|
50084444,
|
|
1111,
|
|
1111,
|
|
12020202,
|
|
02020220,
|
|
1111,
|
|
1111,
|
|
1111,
|
|
7800,
|
|
#GOGOEND
|
|
#SCROLL 0.75
|
|
1010,
|
|
1110,
|
|
1010,
|
|
1110,
|
|
#SCROLL 1
|
|
1110,
|
|
1110,
|
|
1110,
|
|
33304440,
|
|
#GOGOSTART
|
|
50081020,
|
|
1011,
|
|
1012,
|
|
1020,
|
|
50081020,
|
|
1011,
|
|
1012,
|
|
#GOGOEND
|
|
1010,
|
|
1111,
|
|
1004,
|
|
#GOGOSTART
|
|
1012,
|
|
1020,
|
|
1012,
|
|
1011,
|
|
1012,
|
|
1020,
|
|
#GOGOEND
|
|
#SCROLL 0.75
|
|
1010,
|
|
1010,
|
|
1010,
|
|
1010,
|
|
#SCROLL 1
|
|
1110,
|
|
1110,
|
|
1110,
|
|
0708,
|
|
#SCROLL 0.75
|
|
2,
|
|
0000000020020020,
|
|
2,
|
|
0000000020020020,
|
|
2,
|
|
0000000020020020,
|
|
2,
|
|
0000000020020020,
|
|
1001,
|
|
0000000010020020,
|
|
1001,
|
|
0000000010020020,
|
|
1001,
|
|
0000000010020020,
|
|
1001,
|
|
0011,
|
|
#SCROLL 1
|
|
3020,
|
|
3020,
|
|
3020,
|
|
3020,
|
|
3030,
|
|
3030,
|
|
1111,
|
|
30333040,
|
|
#GOGOSTART
|
|
3330,
|
|
3330,
|
|
3330,
|
|
3003003030004000,
|
|
5,
|
|
,
|
|
0008,
|
|
30304440,
|
|
3330,
|
|
3330,
|
|
3330,
|
|
3003003030004000,
|
|
5,
|
|
,
|
|
#GOGOEND
|
|
8,
|
|
5008,
|
|
#GOGOSTART
|
|
1110,
|
|
1110,
|
|
2220,
|
|
2220,
|
|
1110,
|
|
2220,
|
|
1110,
|
|
5008,
|
|
1110,
|
|
1110,
|
|
2220,
|
|
2220,
|
|
1110,
|
|
2220,
|
|
1210,
|
|
2120,
|
|
#GOGOEND
|
|
#BARLINEOFF
|
|
7,
|
|
8,
|
|
#SCROLL 1
|
|
1001,
|
|
#SCROLL 0.9
|
|
0010,
|
|
#SCROLL 0.8
|
|
1001,
|
|
#SCROLL 0.7
|
|
0010,
|
|
#SCROLL 0.6
|
|
1001,
|
|
#SCROLL 0.5
|
|
0010,
|
|
4,
|
|
#END
|