Files
2023-03-24 23:02:25 -04:00

693 lines
23 KiB
Plaintext

//TJADB Project
TITLE:Byoudouin Houou-Don ℣ Chojugi-Katsu
TITLEJA:平等院鳳凰ドン vs 鳥獣戯カッ
SUBTITLE:--Yuuya Kobayashi (IOSYS) feat. miko
SUBTITLEJA:太鼓 de タイムトラベル平安 / コバヤシユウヤ(IOSYS) feat. miko
BPM:81.6
WAVE:Byoudouin Houou-Don vs Chojugi-Katsu.ogg
OFFSET:-3.031
DEMOSTART:67.221
COURSE:Oni
LEVEL:7
BALLOON:20,6,6
SCOREINIT:1780
SCOREDIFF:0
#START
#SCROLL 0.9803921568627452
100000100000
#BPMCHANGE 80
#SCROLL 1
200000200000
#BPMCHANGE 80.2
#SCROLL 0.997506234413965
100000200000200000000000,
#MEASURE 3/4
#BPMCHANGE 75.02
#SCROLL 1.0663822980538524
700000000000000000000000000000000000,
#MEASURE 4/4
#BPMCHANGE 200
#SCROLL 1
800000000000000000000000000000000000000000000000,
#GOGOSTART
100000000000100000200000100000200100200000100000,
200000000000200000100000200000100200100000200000,
100000000000100000200000100000200100200000100000,
300000400000300000400000300000000000000000000000,
100000000000100000200000100000200100200000100000,
200000000000200000100000200000100200100000200000,
100000000000100000200000100000200100200000100000,
000000300000400000300000400000000000000000000000,
#GOGOEND
000000000000000000000000000000000000000000000000,
000000000000000000000000000000000000000000000000,
#BPMCHANGE 100
100100100100000000000000000000000000100000000000,
100100100100000000000000000000000000000000000000,
110000000000110000000000110000000000110000000000,
110000000000110000000000110000000000110000000000,
100100100100000000000000000000000000100000000000,
100100100100000000000000000000000000000000000000,
#GOGOSTART
700000000000800000000000300000000000300000000000,
700000000000800000000000300000000000300000000000,
#GOGOEND
#BPMCHANGE 150
000000000000000000000000000000000000000000000000,
200200200000200000000000000000000000200200200000,
400000000000000000000000000000000000000000000000,
000000000000000000000000000000000000000000000000,
200000200200200000200000200200200000200000200000,
200200200000000000000000200000200000000000000000,
200000200200200000200000200200200000200000200000,
200200200000000000000000200000200000000000000000,
#GOGOSTART
200200200000200000000000400000400000400000000000,
200200200000200000000000400000400000400000000000,
#GOGOEND
200000000000200000000000200000200200200200200000,
200000000000000000000000000000000000000000200200,
200200200000200000000000000000000000200200200000,
#BPMCHANGE 200
#SCROLL 0.75
400000000000000000000000000000000000000000000000,
#SCROLL 1
500000000000000000000000000008000000000000000000,
500000000000000000000000000008000000000000100200,
100000200000100000200000100000200000100000200000,
300000000000000000400000400000000000000000000000,
#GOGOSTART
100000000000100000200000100000200200100000200000,
100000200000100000200000100000000000100000100000,
200000000000200000100000200000100100200000100000,
200000000000200000000000200000000000200000200000,
100000200000100100200000100000200200100000200000,
100000200000100000200000100000000000100000100000,
200000200200100000100000200000200200100000100000,
000000500000000000000000000000000000000008000000,
000000000000100000000000100100100000100000000000,
100000000000200000100000000000100100200000100000,
000000000000200000000000200200200000200000000000,
200000000000100000200000000000200200100000200000,
000000000000100000000000100100100000100000000000,
100000000000200000100000000000100100200000100000,
100000000000100000100000200000200000200000200000,
300000000000400000000000300000000000
#GOGOEND
000000000000,
#BPMCHANGE 180
000000000000000000000000000000000000000000000000,
100000000100100000100000200000200000100000200000,
000000100000100000000000200000200000100000000000,
100000000100100000100000200000200000100000200000,
000000100000100000000000200000200200200000000000,
100000000100100000100000200000200000100000200000,
000000100000100000000000200000200000100000000000,
100000000100100000100000200000200000100000200000,
#BPMCHANGE 200
#SCROLL 0.9
400000000000000000000000000000000000000000000000,
#SCROLL 1
100000000000200000000000200000000000200200200000,
100000000000200200200000200000000000200200200000,
100000000000200000000000100000000000200200200000,
100000000000200200200000100000000000200200200000,
200000000000100000000000200000000000100100100000,
200000000000100100100000200000000000100100100000,
200000000000100000000000100000000000100100100000,
200000000000100100100000100000000000100100100000,
500000000000000000000000000008000000000000000000,
500000000000000000000000000008000000000000100200,
100000200000100000200000100000200000100000200000,
300000000000000000400000400000000000000000000000,
#GOGOSTART
300000000000000000000000300000000000000000000000,
300000000000300000000000300000000000000000000000,
200000000000200000100000200000100100200000100000,
200000000000200000000000200000000000200000200000,
100000200000100100200000100000200200100000200000,
100000200000100000200000100000000000100000100000,
200000200200100000100000200000200200100000100000,
000000500000000000000000000000000000000008000000,
000000000000100000000000100100100000100000000000,
100000000000200000100000000000100100200000100000,
000000000000200000000000200200200000200000000000,
200000000000100000200000000000200200100000200000,
000000000000100000000000100100100000100000000000,
100000000000200000100000000000100100200000100000,
100000000000100000100000200000200000200000200000,
300000000000400000000000300000000000
#GOGOEND
000000000000,
#GOGOSTART
100000000000100000200000100000200100200000100000,
200000000000200000100000200000100200100000200000,
100000000000100000200000100000200100200000100000,
300000400000300000400000300000000000000000000000,
100000000000100000200000100000200100200000100000,
200000000000200000100000200000100200100000200000,
100000000000100000200000100000200100200000100000,
300000000400000000300000000400000000300000600000,
000000000000000000000000000000000000000000000000,
000000000000000000000000000000000000000000000008,
#GOGOEND
000000000000
#GOGOSTART
400000000000000000000000000000000000,
#GOGOEND
#END
COURSE:Hard
LEVEL:6
BALLOON:20,5,5,25
SCOREINIT:2310
SCOREDIFF:0
#START
#SCROLL 0.9803921568627452
100000100000
#BPMCHANGE 80
#SCROLL 1
200000200000
#BPMCHANGE 80.2
#SCROLL 0.997506234413965
100000200000200000000000,
#MEASURE 3/4
#BPMCHANGE 75.02
#SCROLL 1.0663822980538524
700000000000000000000000000000000800,
#MEASURE 4/4
#BPMCHANGE 200
#SCROLL 1
000000000000000000000000000000000000000000000000,
#GOGOSTART
100000000000100000000000100000100100100000100000,
200000000000200000000000200000200200200000200000,
100000000000100000000000100000100100100000100000,
500000000000000000000000000008000000000000000000,
100000000000100000000000100000100100100000100000,
200000000000200000000000200000200200200000200000,
100000000000100000000000100000100100100000100000,
000000300000400000300000400000000000000000000000,
#GOGOEND
000000000000000000000000000000000000000000000000,
000000000000000000000000000000000000000000000000,
#BPMCHANGE 100
100100100100000000000000000000000000100000000000,
100100100100000000000000000000000000000000000000,
100000000000100000000000100000000000100000000000,
100000000000100000000000100000000000100000000000,
100100100100000000000000000000000000100000000000,
100100100100000000000000000000000000000000000000,
#GOGOSTART
700000000000800000000000300000000000300000000000,
700000000000800000000000300000000000300000000000,
#GOGOEND
#BPMCHANGE 150
000000000000000000000000000000000000000000000000,
200200200000200000000000000000000000200200200000,
400000000000000000000000000000000000000000000000,
000000000000000000000000000000000000000000000000,
200000200200200000000000200000200000200000200000,
200200200000000000000000200000200000000000000000,
200000200200200000000000200000200000200000200000,
200200200000000000000000200000200000000000000000,
#GOGOSTART
200200200000200000000000400000400000400000000000,
200200200000200000000000400000400000400000000000,
#GOGOEND
200000000000200000000000200000200200200000000000,
200000000000000000000000000000000000000000000000,
200200200000200000000000000000000000200200200000,
#BPMCHANGE 200
#SCROLL 0.75
400000000000000000000000000000000000000000000000,
#SCROLL 1
500000000000000000000000000008000000000000000000,
500000000000000000000000000008000000000000000000,
100000200000100000200000100000200000100000200000,
300000000000000000400000400000000000000000000000,
#GOGOSTART
100000000000100000000000100000100100100000100000,
100000000000100000000000100000000000000000000000,
200000000000200000000000200000200200200000200000,
200000000000200000000000200000000000000000000000,
100000000000100000100000100000100100100000100000,
100000000000100000000000100000000000000000000000,
200000200000200000000000200000200200200000200000,
000000500000000000000000000000000000000008000000,
000000000000100000000000100000000000100000000000,
100000000000000000100000000000100100100000100000,
000000000000200000000000200000000000200000000000,
200000000000000000200000000000200200200000200000,
000000000000100000000000100000000000100000000000,
100000000000000000100000000000100100100000100000,
100000000000100000000000200000200000200000000000,
300000000000400000000000300000000000
#GOGOEND
000000000000,
#BPMCHANGE 180
000000000000000000000000000000000000000000000000,
100000000000000000100000200000000000100000100000,
000000100000100000000000200000000000100000000000,
100000000000000000100000200000000000100000100000,
000000100000100000000000200000000000000000000000,
100000000000000000100000200000000000100000100000,
000000100000100000000000200000000000100000000000,
100000000000000000100000200000000000100000000000,
#BPMCHANGE 200
#SCROLL 0.9
400000000000000000000000000000000000000000000000,
#SCROLL 1
100000000000200000000000100000000000200000200000,
100000000000200000200000100000000000200000200000,
200000000000100000000000200000000000100000100000,
200000000000100000100000200000000000100000100000,
100000000000200000000000100000000000200000200000,
100000000000200000200000100000000000200000200000,
200000000000100000000000200000000000100000100000,
200000000000100000100000200000000000100000100000,
500000000000000000000000000008000000000000000000,
500000000000000000000000000008000000000000000000,
100000200000100000200000100000200000100000200000,
300000000000000000400000400000000000000000000000,
#GOGOSTART
300000000000000000000000300000000000000000000000,
300000000000300000000000300000000000000000000000,
200000000000200000000000200000200200200000200000,
200000000000200000000000200000000000000000000000,
100000000000100000100000100000100100100000100000,
100000000000100000000000100000000000000000000000,
200000200000200000000000200000200200200000200000,
000000500000000000000000000000000000000008000000,
000000000000100000000000100000000000100000000000,
100000000000000000100000000000100100100000100000,
000000000000200000000000200000000000200000000000,
200000000000000000200000000000200200200000200000,
000000000000100000000000100000000000100000000000,
100000000000000000100000000000100100100000100000,
100000000000100000000000200000200000200000000000,
300000000000400000000000300000000000
#GOGOEND
000000000000,
#GOGOSTART
100000000000100000000000100000100100100000100000,
200000000000200000000000200000200200200000200000,
100000000000100000000000100000100100100000100000,
500000000000000000000000000008000000000000000000,
100000000000100000000000100000100100100000100000,
200000000000200000000000200000200200200000200000,
100000000000100000000000100000100100100000100000,
900000000000000000000000000000000000000000000000,
000000000000000000000000000000000000000000000000,
000000000000000000000000000000000000000000000000,
#GOGOEND
800000000000
#GOGOSTART
400000000000000000000000000000000000,
#GOGOEND
#END
COURSE:Normal
LEVEL:5
BALLOON:13,15
SCOREINIT:3050
SCOREDIFF:0
#START
#SCROLL 0.9803921568627452
100000000000
#BPMCHANGE 80
#SCROLL 1
100000000000
#BPMCHANGE 80.2
#SCROLL 0.997506234413965
100000100000100000000000,
#MEASURE 3/4
#BPMCHANGE 75.02
#SCROLL 1.0663822980538524
700000000000000000000000000000000000,
#MEASURE 4/4
#BPMCHANGE 200
#SCROLL 1
800000000000000000000000000000000000000000000000,
#GOGOSTART
100000000000100000000000100000100000100000000000,
200000000000200000000000200000200000200000000000,
100000000000100000000000100000100000100000000000,
500000000000000000000000000008000000000000000000,
100000000000100000000000100000100000100000000000,
200000000000200000000000200000200000200000000000,
100000000000100000000000100000100000100000000000,
000000300000300000300000300000000000000000000000,
#GOGOEND
000000000000000000000000000000000000000000000000,
000000000000000000000000000000000000000000000000,
#BPMCHANGE 100
100000100000000000000000000000000000100000000000,
100000100000000000000000000000000000000000000000,
100000000000100000000000100000000000100000000000,
100000000000100000000000100000000000100000000000,
100000100000000000000000000000000000100000000000,
100000100000000000000000000000000000000000000000,
#GOGOSTART
000000000000000000000000300000000000300000000000,
000000000000000000000000300000000000300000000000,
#GOGOEND
#BPMCHANGE 150
000000000000000000000000000000000000000000000000,
200000200000200000000000000000000000200000200000,
400000000000000000000000000000000000000000000000,
000000000000000000000000000000000000000000000000,
200000000000200000000000200000200000200000000000,
200000000000000000000000200000200000000000000000,
200000000000200000000000200000200000200000000000,
200000000000000000000000200000200000000000000000,
#GOGOSTART
000000000000000000000000400000400000400000000000,
000000000000000000000000400000400000400000000000,
#GOGOEND
200000000000000000000000200000000000200000000000,
200000000000000000000000000000000000000000000000,
200000200000200000000000000000000000200000200000,
#BPMCHANGE 200
#SCROLL 0.75
400000000000000000000000000000000000000000000000,
#SCROLL 1
500000000000000000000000000008000000000000000000,
500000000000000000000000000008000000000000000000,
100000000000200000000000100000000000200000000000,
300000000000000000000000400000000000000000000000,
#GOGOSTART
100000000000100000000000100000000000100000100000,
100000000000100000000000100000000000000000000000,
200000000000200000000000200000000000200000200000,
200000000000200000000000200000000000000000000000,
100000000000100000100000100000000000100000100000,
100000000000100000000000100000000000000000000000,
200000200000200000000000200000200000200000200000,
000000500000000000000000000000000000000008000000,
000000000000100000000000100000000000100000000000,
100000000000000000100000000000100000100000100000,
000000000000200000000000200000000000200000000000,
200000000000000000200000000000200000200000200000,
000000000000100000000000100000000000100000000000,
100000000000000000100000000000100000100000100000,
100000000000100000000000200000000000200000000000,
300000000000400000000000300000000000
#GOGOEND
000000000000,
#BPMCHANGE 180
000000000000000000000000000000000000000000000000,
100000000000000000200000200000000000100000000000,
000000000000100000000000200000000000100000000000,
100000000000000000200000200000000000100000000000,
000000000000100000000000200000000000000000000000,
100000000000000000200000200000000000100000000000,
000000000000100000000000200000000000100000000000,
100000000000000000200000200000000000100000000000,
#BPMCHANGE 200
#SCROLL 0.9
400000000000000000000000000000000000000000000000,
#SCROLL 1
100000000000100000000000100000000000100000100000,
100000000000100000100000100000000000000000000000,
200000000000200000000000200000000000200000200000,
200000000000200000200000200000000000000000000000,
100000000000100000000000100000000000100000100000,
100000000000100000100000100000000000000000000000,
200000000000200000000000200000000000200000200000,
200000000000200000200000200000000000000000000000,
500000000000000000000000000008000000000000000000,
500000000000000000000000000008000000000000000000,
100000000000200000000000100000000000200000000000,
300000000000000000000000400000000000000000000000,
#GOGOSTART
300000000000000000000000300000000000000000000000,
300000000000300000000000300000000000000000000000,
200000000000200000000000200000000000200000200000,
200000000000200000000000200000000000000000000000,
100000000000100000100000100000000000100000100000,
100000000000100000000000100000000000000000000000,
200000200000200000000000200000200000200000200000,
000000500000000000000000000000000000000008000000,
000000000000100000000000100000000000100000000000,
100000000000000000100000000000100000100000100000,
000000000000200000000000200000000000200000000000,
200000000000000000200000000000200000200000200000,
000000000000100000000000100000000000100000000000,
100000000000000000100000000000100000100000100000,
100000000000100000000000200000000000200000000000,
300000000000400000000000300000000000
#GOGOEND
000000000000,
#GOGOSTART
100000000000100000000000100000100000100000000000,
200000000000200000000000200000200000200000000000,
100000000000100000000000100000100000100000000000,
500000000000000000000000000008000000000000000000,
100000000000100000000000100000100000100000000000,
200000000000200000000000200000200000200000000000,
100000000000100000000000100000100000100000000000,
900000000000000000000000000000000000000000000000,
000000000000000000000000000000000000000000000000,
000000000000000000000000000000000000000000000000,
#GOGOEND
800000000000
#GOGOSTART
400000000000000000000000000000000000,
#GOGOEND
#END
COURSE:Easy
LEVEL:3
BALLOON:11,4,13
SCOREINIT:5550
SCOREDIFF:0
#START
#SCROLL 0.9803921568627452
100000000000
#BPMCHANGE 80
#SCROLL 1
100000000000
#BPMCHANGE 80.2
#SCROLL 0.997506234413965
100000000000000000000000,
#MEASURE 3/4
#BPMCHANGE 75.02
#SCROLL 1.0663822980538524
700000000000000000000000000000000000,
#MEASURE 4/4
#BPMCHANGE 200
#SCROLL 1
800000000000000000000000000000000000000000000000,
#GOGOSTART
100000000000100000000000100000000000000000000000,
200000000000200000000000200000000000000000000000,
100000000000100000000000100000000000000000000000,
500000000000000000000000000008000000000000000000,
100000000000100000000000100000000000000000000000,
200000000000200000000000200000000000000000000000,
100000000000100000000000100000000000000000000000,
000000700000000000000000000000000000800000000000,
#GOGOEND
000000000000000000000000000000000000000000000000,
000000000000000000000000000000000000000000000000,
#BPMCHANGE 100
100000000000000000000000000000000000100000000000,
100000000000000000000000000000000000000000000000,
100000000000100000000000100000000000100000000000,
100000000000100000000000100000000000000000000000,
100000000000000000000000000000000000100000000000,
100000000000000000000000000000000000000000000000,
#GOGOSTART
000000000000000000000000300000000000300000000000,
000000000000000000000000300000000000300000000000,
#GOGOEND
#BPMCHANGE 150
000000000000000000000000000000000000000000000000,
200000000000200000000000000000000000400000000000,
400000000000000000000000000000000000000000000000,
000000000000000000000000000000000000000000000000,
200000000000000000000000200000000000200000000000,
200000000000000000000000000000000000000000000000,
200000000000000000000000200000000000200000000000,
200000000000000000000000000000000000000000000000,
#GOGOSTART
000000000000000000000000400000000000400000000000,
000000000000000000000000400000000000400000000000,
#GOGOEND
200000000000000000000000200000000000000000000000,
200000000000000000000000000000000000000000000000,
200000000000200000000000000000000000400000000000,
#BPMCHANGE 200
#SCROLL 0.75
400000000000000000000000000000000000000000000000,
#SCROLL 1
500000000000000000000000000008000000000000000000,
500000000000000000000000000008000000000000000000,
100000000000100000000000100000000000100000000000,
300000000000000000000000400000000000000000000000,
#GOGOSTART
100000000000000000000000100000000000000000000000,
100000000000100000000000100000000000000000000000,
200000000000000000000000200000000000000000000000,
200000000000200000000000200000000000000000000000,
100000000000000000000000100000000000000000000000,
100000000000100000000000100000000000000000000000,
200000000000000000000000200000000000000000000000,
000000500000000000000000000000000000000008000000,
000000000000100000000000100000000000100000000000,
100000000000000000000000000000000000000000000000,
000000000000200000000000200000000000200000000000,
200000000000000000000000000000000000000000000000,
000000000000100000000000100000000000100000000000,
100000000000000000000000000000000000000000000000,
300000000000000000000000300000000000000000000000,
400000000000400000000000400000000000
#GOGOEND
000000000000,
#BPMCHANGE 180
000000000000000000000000000000000000000000000000,
100000000000000000000000000000000000000000000000,
000000000000000000000000000000000000100000000000,
100000000000000000000000000000000000000000000000,
000000000000000000000000000000000000000000000000,
100000000000000000000000000000000000000000000000,
000000000000000000000000000000000000100000000000,
100000000000000000000000000000000000000000000000,
#BPMCHANGE 200
#SCROLL 0.9
400000000000000000000000000000000000000000000000,
#SCROLL 1
100000000000000000000000100000000000000000000000,
100000000000000000000000000000000000000000000000,
200000000000000000000000200000000000000000000000,
200000000000000000000000000000000000000000000000,
100000000000000000000000100000000000000000000000,
100000000000000000000000000000000000000000000000,
200000000000000000000000200000000000000000000000,
200000000000000000000000000000000000000000000000,
500000000000000000000000000008000000000000000000,
500000000000000000000000000008000000000000000000,
100000000000100000000000100000000000100000000000,
300000000000000000000000400000000000000000000000,
#GOGOSTART
300000000000000000000000300000000000000000000000,
300000000000300000000000300000000000000000000000,
200000000000000000000000200000000000000000000000,
200000000000200000000000200000000000000000000000,
100000000000000000000000100000000000000000000000,
100000000000100000000000100000000000000000000000,
200000000000000000000000200000000000000000000000,
000000500000000000000000000000000000000008000000,
000000000000100000000000100000000000100000000000,
100000000000000000000000000000000000000000000000,
000000000000200000000000200000000000200000000000,
200000000000000000000000000000000000000000000000,
000000000000100000000000100000000000100000000000,
100000000000000000000000000000000000000000000000,
300000000000000000000000300000000000000000000000,
400000000000400000000000400000000000
#GOGOEND
000000000000,
#GOGOSTART
100000000000100000000000100000000000000000000000,
200000000000200000000000200000000000000000000000,
100000000000100000000000100000000000000000000000,
500000000000000000000000000008000000000000000000,
100000000000100000000000100000000000000000000000,
200000000000200000000000200000000000000000000000,
100000000000100000000000100000000000000000000000,
900000000000000000000000000000000000000000000000,
000000000000000000000000000000000000000000000000,
000000000000000000000000000000000000000000000000,
#GOGOEND
800000000000
#GOGOSTART
400000000000000000000000000000000000,
#GOGOEND
#END