1236 lines
12 KiB
Plaintext
1236 lines
12 KiB
Plaintext
//TJADB Project
|
|
TITLE:Crazy Beauty
|
|
TITLEJA:クレイジービューティー
|
|
SUBTITLE:--Linda AI-CUE feat. Shoko
|
|
BPM:154
|
|
WAVE:Crazy Beauty.ogg
|
|
OFFSET:-1.832
|
|
DEMOSTART:94.645
|
|
|
|
COURSE:Oni
|
|
LEVEL:10
|
|
BALLOON:15,15
|
|
SCOREINIT:430
|
|
SCOREDIFF:100
|
|
|
|
|
|
#START
|
|
|
|
|
|
3000000070000000,
|
|
0000800030000000,
|
|
600000000000000000000000000000000000000008000000,
|
|
3000000011112022,
|
|
1010200011102000,
|
|
1111200011102000,
|
|
1111200011102000,
|
|
11111020
|
|
#SCROLL 1.1
|
|
#BPMCHANGE 140
|
|
11111120,
|
|
#BARLINEOFF
|
|
#BPMCHANGE 90
|
|
#SCROLL 1
|
|
000001
|
|
#BPMCHANGE 110
|
|
000100
|
|
#BPMCHANGE 132
|
|
010001
|
|
#BPMCHANGE 149.96
|
|
000100,
|
|
#BPMCHANGE 172
|
|
010001
|
|
#BPMCHANGE 191.01
|
|
000100
|
|
#BPMCHANGE 214.01
|
|
010001
|
|
#BPMCHANGE 244.66
|
|
#SCROLL 0.87
|
|
000100,
|
|
#BARLINEON
|
|
#BPMCHANGE 220
|
|
#SCROLL 1
|
|
2220002020002020,
|
|
2020200020200020,
|
|
2220002020002000,
|
|
#MEASURE 5/4
|
|
20202020200020002020,
|
|
#MEASURE 4/4
|
|
2220002020002020,
|
|
2020200020200020,
|
|
2220002020002020,
|
|
#MEASURE 5/4
|
|
20202000200022112011,
|
|
#MEASURE 4/4
|
|
1010201120102111,
|
|
2010201120102011,
|
|
1120112020102111,
|
|
#MEASURE 5/4
|
|
20102011201020101120,
|
|
#MEASURE 4/4
|
|
0010201120102111,
|
|
2010201120102011,
|
|
1120112020102111,
|
|
#MEASURE 5/4
|
|
20102011201120201120,
|
|
#MEASURE 4/4
|
|
0010201120102111,
|
|
2010201120112011,
|
|
1120112020102111,
|
|
#MEASURE 5/4
|
|
20112011201120201120,
|
|
#MEASURE 4/4
|
|
0010112020102111,
|
|
2011201120112011,
|
|
1120112020102111,
|
|
#MEASURE 5/4
|
|
200000100100200000100100200000100100200000200000101010200000,
|
|
#MEASURE 4/4
|
|
0010002020101020,
|
|
200000100000101010000000200000000000101010000000,
|
|
1020002020101020,
|
|
#MEASURE 5/4
|
|
200000100000101010000000200000000000101010000000200000000000,
|
|
#MEASURE 4/4
|
|
1120002020101020,
|
|
200000100000101010000000200000000000101010000000,
|
|
1020002020101020,
|
|
#MEASURE 6/4
|
|
200000100000
|
|
#BPMCHANGE 190.31
|
|
#SCROLL 1.15
|
|
101010000000200000000000
|
|
#BPMCHANGE 165.54
|
|
#SCROLL 1.32
|
|
101010000000
|
|
#BPMCHANGE 121.03
|
|
#SCROLL 1.81
|
|
100000200000
|
|
#BPMCHANGE 98.41
|
|
#SCROLL 2.23
|
|
000000000000,
|
|
#MEASURE 3/4
|
|
#BPMCHANGE 90
|
|
#SCROLL 1
|
|
102010201011,
|
|
#MEASURE 5/8
|
|
2020102010,
|
|
#MEASURE 3/4
|
|
102010201011,
|
|
#MEASURE 5/8
|
|
2020022010,
|
|
#MEASURE 3/4
|
|
102010201022,
|
|
#MEASURE 5/8
|
|
1020022010,
|
|
#MEASURE 3/4
|
|
102010201020,
|
|
#MEASURE 5/8
|
|
100000200000500008000000500008,
|
|
#MEASURE 3/4
|
|
002010201020,
|
|
#MEASURE 5/8
|
|
1020022010,
|
|
#MEASURE 3/4
|
|
201020102010,
|
|
#MEASURE 5/8
|
|
2001200040,
|
|
#BARLINEOFF
|
|
#MEASURE 4/4
|
|
#BPMCHANGE 110
|
|
#SCROLL 0.82
|
|
101
|
|
#BPMCHANGE 132
|
|
#SCROLL 1
|
|
010
|
|
#BPMCHANGE 148.19
|
|
101
|
|
#BPMCHANGE 172
|
|
010,
|
|
#BPMCHANGE 191.01
|
|
101
|
|
#BPMCHANGE 210
|
|
010
|
|
#BPMCHANGE 226
|
|
101
|
|
#BPMCHANGE 247.29
|
|
#SCROLL 0.91
|
|
010,
|
|
#BARLINEON
|
|
#BPMCHANGE 220
|
|
#SCROLL 1
|
|
1120001000101000,
|
|
2000111110111020,
|
|
0000110010000040,
|
|
#MEASURE 5/4
|
|
00400011111111111000,
|
|
#MEASURE 4/4
|
|
1120001110101010,
|
|
200200200200101010000000100000200000101010000000,
|
|
1020001022221111,
|
|
#MEASURE 5/4
|
|
200200200200101010000000200000100000101010000000200000100000,
|
|
#MEASURE 4/4
|
|
101010200000000000101010200000200000101010200000,
|
|
100000000000600000000000000000000000000000000008,
|
|
#MEASURE 5/4
|
|
80000000000000000000,
|
|
#MEASURE 4/4
|
|
3000300011112000,
|
|
|
|
#GOGOSTART
|
|
1120001120201120,
|
|
1110202011102020,
|
|
1120001120201120,
|
|
#MEASURE 5/4
|
|
11102220111022201020,
|
|
#MEASURE 4/4
|
|
1120001120201020,
|
|
1111202011112020,
|
|
1120001120201120,
|
|
#MEASURE 5/4
|
|
11112020111120201020,
|
|
101010200000000000101010200000000000100100200000100000000000,
|
|
#MEASURE 3/4
|
|
111122221020,
|
|
#MEASURE 4/4
|
|
101010200000000000101010200000000000100100200000,
|
|
#MEASURE 5/4
|
|
10001111222210201111,
|
|
#MEASURE 4/4
|
|
2222102022201000,
|
|
1111201120102210,
|
|
1022101020102000,
|
|
#MEASURE 5/4
|
|
11112011201022101022,
|
|
#MEASURE 4/4
|
|
1010201011112000,
|
|
1111211120102210,
|
|
1022101020112000,
|
|
#MEASURE 5/4
|
|
11112111201022101022,
|
|
#MEASURE 4/4
|
|
1010201011112000,
|
|
1111211120102210,
|
|
1022101021112000,
|
|
#BPMCHANGE 228.97
|
|
#SCROLL 0.96
|
|
1111
|
|
#BPMCHANGE 221.53
|
|
#SCROLL 0.99
|
|
2000
|
|
#BPMCHANGE 174.21
|
|
#SCROLL 1.26
|
|
2000
|
|
#BPMCHANGE 139.94
|
|
#SCROLL 1.57
|
|
2010,
|
|
#MEASURE 5/4
|
|
#SCROLL 1.49
|
|
#BPMCHANGE 147
|
|
1020
|
|
|
|
#GOGOEND
|
|
#BPMCHANGE 138.27
|
|
#SCROLL 1.59
|
|
0000000000000000,
|
|
#MEASURE 4/4
|
|
#BPMCHANGE 154
|
|
#SCROLL 1
|
|
3000000070000000,
|
|
0000800030000000,
|
|
600000000000000000000000000000000000000080000000,
|
|
3000000011112022,
|
|
1010200021111000,
|
|
1211100011211000,
|
|
1112100011112000,
|
|
12221222
|
|
#SCROLL 1.1
|
|
#BPMCHANGE 140
|
|
12221220,
|
|
,
|
|
#SCROLL 0.5
|
|
3,
|
|
|
|
|
|
#END
|
|
|
|
|
|
COURSE:Hard
|
|
LEVEL:8
|
|
BALLOON:10,4,4,10
|
|
SCOREINIT:480
|
|
SCOREDIFF:115
|
|
|
|
|
|
#START
|
|
|
|
|
|
3070,
|
|
8030,
|
|
6000000000000080,
|
|
3000000011111011,
|
|
11203000,
|
|
3030,
|
|
3030,
|
|
30000000
|
|
#SCROLL 1.1
|
|
#BPMCHANGE 140
|
|
|
|
11111000,//8
|
|
|
|
#SCROLL 1.0
|
|
#BPMCHANGE 90
|
|
#MEASURE 2/4
|
|
0
|
|
|
|
#BPMCHANGE 110
|
|
|
|
0,
|
|
|
|
#BPMCHANGE 132
|
|
|
|
0
|
|
|
|
#BPMCHANGE 149.96
|
|
|
|
0,
|
|
|
|
#BPMCHANGE 172
|
|
|
|
0
|
|
|
|
#BPMCHANGE 191.08
|
|
|
|
0,
|
|
|
|
#BPMCHANGE 214
|
|
|
|
0
|
|
|
|
#BPMCHANGE 244.66
|
|
#SCROLL 0.87
|
|
|
|
0,//12
|
|
|
|
#BPMCHANGE 220
|
|
#SCROLL 1.0
|
|
#MEASURE 4/4
|
|
22022020,
|
|
22202220,
|
|
22022020,
|
|
|
|
#MEASURE 5/4
|
|
2220202220,//16
|
|
|
|
#MEASURE 4/4
|
|
22022020,
|
|
22202220,
|
|
22022020,
|
|
|
|
#MEASURE 5/4
|
|
20202000200011102000,//20
|
|
|
|
#MEASURE 4/4
|
|
12121011,
|
|
2000102000111000,
|
|
121212011,
|
|
|
|
#MEASURE 5/4
|
|
2012001112,//24
|
|
|
|
#MEASURE 4/4
|
|
01212011,
|
|
2000102000111000,
|
|
12121011,
|
|
|
|
#MEASURE 5/4
|
|
2012001112,//28
|
|
|
|
#MEASURE 4/4
|
|
01212011,
|
|
2000102000111000,
|
|
12121111,
|
|
|
|
#MEASURE 5/4
|
|
2012001112,//32
|
|
|
|
#MEASURE 4/4
|
|
01212111,
|
|
2000102000111000,
|
|
12121121,
|
|
|
|
#MEASURE 5/4
|
|
20001020000010111020,//36
|
|
|
|
#MEASURE 4/4
|
|
01022112,
|
|
21102012,
|
|
01022112,
|
|
|
|
#MEASURE 5/4
|
|
2110102010,//40
|
|
|
|
#MEASURE 4/4
|
|
12022112,
|
|
21102022,
|
|
02022112,
|
|
|
|
#MEASURE 6/4
|
|
21
|
|
|
|
#SCROLL 1.15
|
|
#BPMCHANGE 190.31
|
|
1020
|
|
|
|
#SCROLL 1.32
|
|
#BPMCHANGE 165.58
|
|
20
|
|
|
|
#SCROLL 1.81
|
|
#BPMCHANGE 121.08
|
|
12
|
|
|
|
#SCROLL 2.23
|
|
#BPMCHANGE 98.41
|
|
00,//44
|
|
|
|
#SCROLL 1.0
|
|
#BPMCHANGE 90
|
|
#MEASURE 3/4
|
|
102010201011,
|
|
|
|
#MEASURE 5/8
|
|
12121,
|
|
|
|
#MEASURE 3/4
|
|
102010201011,
|
|
|
|
#MEASURE 5/8
|
|
1010022020,//48
|
|
|
|
#MEASURE 3/4
|
|
102010201011,
|
|
|
|
#MEASURE 5/8
|
|
1010022020,
|
|
|
|
#MEASURE 3/4
|
|
121212,
|
|
|
|
#MEASURE 5/8
|
|
1020111020,//52
|
|
|
|
#MEASURE 3/4
|
|
201020102011,
|
|
|
|
#MEASURE 5/8
|
|
1020022020,
|
|
|
|
#MEASURE 3/4
|
|
121212,
|
|
|
|
#MEASURE 5/8
|
|
1110200040,//56
|
|
|
|
#MEASURE 2/4
|
|
#BPMCHANGE 110
|
|
0
|
|
|
|
#BPMCHANGE 132
|
|
0,
|
|
|
|
#BPMCHANGE 148.1
|
|
0
|
|
|
|
#BPMCHANGE 172
|
|
0,
|
|
|
|
#BPMCHANGE 190.18
|
|
0
|
|
|
|
#BPMCHANGE 210
|
|
0,
|
|
|
|
#BPMCHANGE 226
|
|
0
|
|
|
|
#BPMCHANGE 247.29
|
|
0,//60
|
|
|
|
#BPMCHANGE 220
|
|
#MEASURE 4/4
|
|
1110001110101000,
|
|
1000111010100010,
|
|
0000111010000040,
|
|
|
|
#MEASURE 5/4
|
|
0401111110,
|
|
|
|
#MEASURE 4/4
|
|
1110001000000000,
|
|
2020101020001110,
|
|
0010000022201110,
|
|
|
|
#MEASURE 5/4
|
|
0022112020,
|
|
|
|
#MEASURE 4/4
|
|
1110001110001110,
|
|
2600,
|
|
|
|
#MEASURE 5/4
|
|
8,
|
|
#MEASURE 4/4
|
|
3330,//72
|
|
#GOGOSTART
|
|
1110001110001020,
|
|
12121012,
|
|
1110001110001020,
|
|
|
|
#MEASURE 5/4
|
|
1210101122,
|
|
|
|
#MEASURE 4/4
|
|
1110001110001110,
|
|
11201020,
|
|
1110001110001010,
|
|
|
|
#MEASURE 5/4
|
|
1020102212,//80
|
|
11100011100010201020,
|
|
|
|
#MEASURE 3/4
|
|
100011102000,
|
|
|
|
#MEASURE 4/4
|
|
1110001110001020,
|
|
|
|
#MEASURE 5/4
|
|
1212700080,//84
|
|
|
|
#MEASURE 4/4
|
|
6080,
|
|
1110111020002020,
|
|
12112020,
|
|
|
|
#MEASURE 5/4
|
|
11101110200010102020,//88
|
|
|
|
#MEASURE 4/4
|
|
1020001020102000,
|
|
|
|
#MEASURE 4/4
|
|
1110111020002020,
|
|
12112020,
|
|
|
|
#MEASURE 5/4
|
|
11101110200020201020,
|
|
|
|
#MEASURE 4/4
|
|
12012120,//93
|
|
|
|
#MEASURE 4/4
|
|
1110111020002020,
|
|
12012020,
|
|
|
|
#SCROLL 0.96
|
|
#BPMCHANGE 228.9
|
|
1110
|
|
|
|
#SCROLL 0.99
|
|
#BPMCHANGE 221.5
|
|
1110
|
|
|
|
#SCROLL 1.26
|
|
#BPMCHANGE 174.2
|
|
2000
|
|
|
|
#SCROLL 1.57
|
|
#BPMCHANGE 139.95
|
|
2010,
|
|
|
|
#MEASURE 5/4
|
|
#SCROLL 1.49
|
|
#BPMCHANGE 147
|
|
12
|
|
|
|
#GOGOEND
|
|
#SCROLL 1.59
|
|
#BPMCHANGE 138.27
|
|
00000000,
|
|
|
|
#SCROLL 1.0
|
|
#BPMCHANGE 154
|
|
#MEASURE 4/4
|
|
3070,
|
|
8030,
|
|
6000000000008000,
|
|
3000000011111011,
|
|
11201120,
|
|
10201120,
|
|
1210,
|
|
11111020
|
|
|
|
#SCROLL 1.1
|
|
#BPMCHANGE 140
|
|
11111000,
|
|
,
|
|
|
|
#SCROLL 0.5
|
|
|
|
3,
|
|
|
|
#END
|
|
|
|
|
|
COURSE:Normal
|
|
LEVEL:7
|
|
BALLOON:7,7,7,6,6,6,3,3
|
|
SCOREINIT:680
|
|
SCOREDIFF:168
|
|
|
|
#START
|
|
3070,
|
|
8030,
|
|
6000000000000080,
|
|
70000800,//4
|
|
33,
|
|
44,
|
|
3040,
|
|
60000008
|
|
#SCROLL 1.1
|
|
#BPMCHANGE 140
|
|
|
|
70000008,//8
|
|
|
|
#SCROLL 1.0
|
|
#BPMCHANGE 90
|
|
#MEASURE 2/4
|
|
0
|
|
|
|
#BPMCHANGE 110
|
|
|
|
0,
|
|
|
|
#BPMCHANGE 132
|
|
|
|
0
|
|
|
|
#BPMCHANGE 149.96
|
|
|
|
0,
|
|
|
|
#BPMCHANGE 172
|
|
|
|
0
|
|
|
|
#BPMCHANGE 191.08
|
|
|
|
0,
|
|
|
|
#BPMCHANGE 214
|
|
|
|
0
|
|
|
|
#BPMCHANGE 244.66
|
|
#SCROLL 0.87
|
|
|
|
0,//12
|
|
|
|
#BPMCHANGE 220
|
|
#SCROLL 1.0
|
|
#MEASURE 4/4
|
|
22000000,
|
|
,
|
|
22002010,
|
|
|
|
#MEASURE 5/4
|
|
,//16
|
|
|
|
#MEASURE 4/4
|
|
22000000,
|
|
,
|
|
22002010,
|
|
|
|
#MEASURE 5/4
|
|
04430,//20
|
|
|
|
#MEASURE 4/4
|
|
11101010,
|
|
2,
|
|
11102010,
|
|
|
|
#MEASURE 5/4
|
|
2000001111,//24
|
|
|
|
#MEASURE 4/4
|
|
02001010,
|
|
2,
|
|
11101010,
|
|
|
|
#MEASURE 5/4
|
|
2000001111,//28
|
|
|
|
#MEASURE 4/4
|
|
02002010,
|
|
2,
|
|
11101010,
|
|
|
|
#MEASURE 5/4
|
|
2000001111,//32
|
|
|
|
#MEASURE 4/4
|
|
02002010,
|
|
2,
|
|
11101010,
|
|
|
|
#MEASURE 5/4
|
|
2000001111,//36
|
|
|
|
#MEASURE 4/4
|
|
02050000,
|
|
80101011,
|
|
01050000,
|
|
|
|
#MEASURE 5/4
|
|
81111,//40
|
|
|
|
#MEASURE 4/4
|
|
11050000,
|
|
80101011,
|
|
01050000,
|
|
|
|
#MEASURE 6/4
|
|
8
|
|
|
|
#SCROLL 1.15
|
|
#BPMCHANGE 190.31
|
|
11
|
|
|
|
#SCROLL 1.32
|
|
#BPMCHANGE 165.58
|
|
1
|
|
|
|
#SCROLL 1.81
|
|
#BPMCHANGE 121.08
|
|
1
|
|
|
|
#SCROLL 2.23
|
|
#BPMCHANGE 98.41
|
|
0,//44
|
|
|
|
#SCROLL 1.0
|
|
#BPMCHANGE 90
|
|
#MEASURE 3/4
|
|
101012,
|
|
|
|
#MEASURE 5/8
|
|
12121,
|
|
|
|
#MEASURE 3/4
|
|
111,
|
|
|
|
#MEASURE 5/8
|
|
70080,//48
|
|
|
|
#MEASURE 3/4
|
|
121212,
|
|
|
|
#MEASURE 5/8
|
|
70080,
|
|
|
|
#MEASURE 3/4
|
|
111,
|
|
|
|
#MEASURE 5/8
|
|
70080,//52
|
|
|
|
#MEASURE 3/4
|
|
010101,
|
|
|
|
#MEASURE 5/8
|
|
02020,
|
|
|
|
#MEASURE 3/4
|
|
111,
|
|
|
|
#MEASURE 5/8
|
|
1000200040,//56
|
|
|
|
#MEASURE 2/4
|
|
#BPMCHANGE 110
|
|
0
|
|
|
|
#BPMCHANGE 132
|
|
0,
|
|
|
|
#BPMCHANGE 148.1
|
|
0
|
|
|
|
#BPMCHANGE 172
|
|
0,
|
|
|
|
#BPMCHANGE 190.18
|
|
0
|
|
|
|
#BPMCHANGE 210
|
|
0,
|
|
|
|
#BPMCHANGE 226
|
|
0
|
|
|
|
#BPMCHANGE 247.29
|
|
0,//60
|
|
|
|
#BPMCHANGE 220
|
|
#MEASURE 4/4
|
|
11010110,
|
|
20110102,
|
|
00101004,
|
|
|
|
#MEASURE 5/4
|
|
0406000800,
|
|
|
|
#MEASURE 4/4
|
|
11010000,
|
|
5,
|
|
08002010,
|
|
|
|
#MEASURE 5/4
|
|
01112,
|
|
|
|
#MEASURE 4/4
|
|
11011011,
|
|
10600000,
|
|
|
|
#MEASURE 5/4
|
|
8,
|
|
#MEASURE 4/4
|
|
3330,//72
|
|
#GOGOSTART
|
|
11011011,
|
|
1212,
|
|
11022011,
|
|
|
|
#MEASURE 5/4
|
|
12120,
|
|
|
|
#MEASURE 4/4
|
|
11011011,
|
|
1212,
|
|
11022011,
|
|
|
|
#MEASURE 5/4
|
|
12120,//80
|
|
1101101210,
|
|
|
|
#MEASURE 3/4
|
|
212,
|
|
|
|
#MEASURE 4/4
|
|
11011012,
|
|
|
|
#MEASURE 5/4
|
|
1012700800,//84
|
|
|
|
#MEASURE 4/4
|
|
70080000,
|
|
1212,
|
|
11011020,
|
|
|
|
#MEASURE 5/4
|
|
12122,//88
|
|
|
|
#MEASURE 4/4
|
|
11011022,
|
|
|
|
#MEASURE 4/4
|
|
1212,
|
|
11011022,
|
|
|
|
#MEASURE 5/4
|
|
12122,
|
|
|
|
#MEASURE 4/4
|
|
11011012,//93
|
|
|
|
#MEASURE 4/4
|
|
1212,
|
|
11011022,
|
|
|
|
#SCROLL 0.96
|
|
#BPMCHANGE 228.9
|
|
10
|
|
|
|
#SCROLL 0.99
|
|
#BPMCHANGE 221.5
|
|
20
|
|
|
|
#SCROLL 1.26
|
|
#BPMCHANGE 174.2
|
|
10
|
|
|
|
#SCROLL 1.57
|
|
#BPMCHANGE 139.95
|
|
22,
|
|
|
|
#MEASURE 5/4
|
|
#SCROLL 1.49
|
|
#BPMCHANGE 147
|
|
12
|
|
|
|
#GOGOEND
|
|
#SCROLL 1.59
|
|
#BPMCHANGE 138.27
|
|
00000000,
|
|
|
|
#SCROLL 1.0
|
|
#BPMCHANGE 154
|
|
#MEASURE 4/4
|
|
3070,
|
|
8030,
|
|
6000000000008000,
|
|
70008000,
|
|
33,
|
|
44,
|
|
34,
|
|
60000080
|
|
|
|
#SCROLL 1.1
|
|
#BPMCHANGE 140
|
|
70000008,
|
|
,
|
|
|
|
#SCROLL 0.5
|
|
|
|
3,
|
|
,
|
|
#END
|
|
|
|
|
|
COURSE:Easy
|
|
LEVEL:5
|
|
BALLOON:4,4,4,4,4,4,2,2,4,4,4
|
|
SCOREINIT:440
|
|
SCOREDIFF:93
|
|
|
|
#START
|
|
3070,
|
|
8030,
|
|
6000000000000080,
|
|
70000800,//4
|
|
33,
|
|
33,
|
|
3030,
|
|
60000008
|
|
#SCROLL 1.1
|
|
#BPMCHANGE 140
|
|
|
|
70000008,//8
|
|
|
|
#SCROLL 1.0
|
|
#BPMCHANGE 90
|
|
#MEASURE 2/4
|
|
0
|
|
|
|
#BPMCHANGE 110
|
|
|
|
0,
|
|
|
|
#BPMCHANGE 132
|
|
|
|
0
|
|
|
|
#BPMCHANGE 149.96
|
|
|
|
0,
|
|
|
|
#BPMCHANGE 172
|
|
|
|
0
|
|
|
|
#BPMCHANGE 191.08
|
|
|
|
0,
|
|
|
|
#BPMCHANGE 214
|
|
|
|
0
|
|
|
|
#BPMCHANGE 244.66
|
|
#SCROLL 0.87
|
|
|
|
0,//12
|
|
|
|
#BPMCHANGE 220
|
|
#SCROLL 1.0
|
|
#MEASURE 4/4
|
|
11000000,
|
|
,
|
|
11002020,
|
|
|
|
#MEASURE 5/4
|
|
,//16
|
|
|
|
#MEASURE 4/4
|
|
11000000,
|
|
,
|
|
11002020,
|
|
|
|
#MEASURE 5/4
|
|
04400,//20
|
|
|
|
#MEASURE 4/4
|
|
10001010,
|
|
1,
|
|
10002020,
|
|
|
|
#MEASURE 5/4
|
|
2000001101,//24
|
|
|
|
#MEASURE 4/4
|
|
0011,
|
|
1,
|
|
10002020,
|
|
|
|
#MEASURE 5/4
|
|
2000001101,//28
|
|
|
|
#MEASURE 4/4
|
|
00001010,
|
|
2,
|
|
10002020,
|
|
|
|
#MEASURE 5/4
|
|
2000001101,//32
|
|
|
|
#MEASURE 4/4
|
|
00001010,
|
|
2,
|
|
10002020,
|
|
|
|
#MEASURE 5/4
|
|
2000001101,//36
|
|
|
|
#MEASURE 4/4
|
|
,
|
|
00101011,
|
|
01000000,
|
|
|
|
#MEASURE 5/4
|
|
01111,//40
|
|
|
|
#MEASURE 4/4
|
|
11000000,
|
|
00101011,
|
|
01000000,
|
|
|
|
#MEASURE 6/4
|
|
0
|
|
|
|
#SCROLL 1.15
|
|
#BPMCHANGE 190.31
|
|
11
|
|
|
|
#SCROLL 1.32
|
|
#BPMCHANGE 165.58
|
|
1
|
|
|
|
#SCROLL 1.81
|
|
#BPMCHANGE 121.08
|
|
1
|
|
|
|
#SCROLL 2.23
|
|
#BPMCHANGE 98.41
|
|
0,//44
|
|
|
|
#SCROLL 1.0
|
|
#BPMCHANGE 90
|
|
#MEASURE 3/4
|
|
301,
|
|
|
|
#MEASURE 5/8
|
|
10100,
|
|
|
|
#MEASURE 3/4
|
|
111,
|
|
|
|
#MEASURE 5/8
|
|
70080,//48
|
|
|
|
#MEASURE 3/4
|
|
111,
|
|
|
|
#MEASURE 5/8
|
|
70080,
|
|
|
|
#MEASURE 3/4
|
|
111,
|
|
|
|
#MEASURE 5/8
|
|
70080,//52
|
|
|
|
#MEASURE 3/4
|
|
010101,
|
|
|
|
#MEASURE 5/8
|
|
02020,
|
|
|
|
#MEASURE 3/4
|
|
111,
|
|
|
|
#MEASURE 5/8
|
|
1000200040,//56
|
|
|
|
#MEASURE 2/4
|
|
#BPMCHANGE 110
|
|
0
|
|
|
|
#BPMCHANGE 132
|
|
0,
|
|
|
|
#BPMCHANGE 148.1
|
|
0
|
|
|
|
#BPMCHANGE 172
|
|
0,
|
|
|
|
#BPMCHANGE 190.18
|
|
0
|
|
|
|
#BPMCHANGE 210
|
|
0,
|
|
|
|
#BPMCHANGE 226
|
|
0
|
|
|
|
#BPMCHANGE 247.29
|
|
0,//60
|
|
|
|
#BPMCHANGE 220
|
|
#MEASURE 4/4
|
|
10010100,
|
|
00100101,
|
|
00101004,
|
|
|
|
#MEASURE 5/4
|
|
0406000800,
|
|
|
|
#MEASURE 4/4
|
|
10010010,
|
|
5,
|
|
8011,
|
|
|
|
#MEASURE 5/4
|
|
12222,
|
|
|
|
#MEASURE 4/4
|
|
30030030,
|
|
30600000,
|
|
|
|
#MEASURE 5/4
|
|
8,
|
|
#MEASURE 4/4
|
|
3330,//72
|
|
#GOGOSTART
|
|
10010010,
|
|
1120,
|
|
10010010,
|
|
|
|
#MEASURE 5/4
|
|
11220,
|
|
|
|
#MEASURE 4/4
|
|
10010010,
|
|
1120,
|
|
10010010,
|
|
|
|
#MEASURE 5/4
|
|
11220,//80
|
|
3003004010,
|
|
|
|
#MEASURE 3/4
|
|
122,
|
|
|
|
#MEASURE 4/4
|
|
30030040,
|
|
|
|
#MEASURE 5/4
|
|
1010700800,//84
|
|
|
|
#MEASURE 4/4
|
|
70080000,
|
|
1122,
|
|
11011000,
|
|
|
|
#MEASURE 5/4
|
|
11222,//88
|
|
|
|
#MEASURE 4/4
|
|
11011000,
|
|
|
|
#MEASURE 4/4
|
|
1122,
|
|
11011000,
|
|
|
|
#MEASURE 5/4
|
|
11222,
|
|
|
|
#MEASURE 4/4
|
|
11011000,//93
|
|
|
|
#MEASURE 4/4
|
|
1122,
|
|
11011000,
|
|
|
|
#SCROLL 0.96
|
|
#BPMCHANGE 228.9
|
|
10
|
|
|
|
#SCROLL 0.99
|
|
#BPMCHANGE 221.5
|
|
10
|
|
|
|
#SCROLL 1.26
|
|
#BPMCHANGE 174.2
|
|
10
|
|
|
|
#SCROLL 1.57
|
|
#BPMCHANGE 139.95
|
|
22,
|
|
|
|
#MEASURE 5/4
|
|
#SCROLL 1.49
|
|
#BPMCHANGE 147
|
|
22
|
|
|
|
#GOGOEND
|
|
#SCROLL 1.59
|
|
#BPMCHANGE 138.27
|
|
00000000,
|
|
|
|
#SCROLL 1.0
|
|
#BPMCHANGE 154
|
|
#MEASURE 4/4
|
|
3070,
|
|
8030,
|
|
6000000000008000,
|
|
70008000,
|
|
33,
|
|
33,
|
|
33,
|
|
60000080
|
|
|
|
#SCROLL 1.1
|
|
#BPMCHANGE 140
|
|
70000008,
|
|
,
|
|
|
|
#SCROLL 0.5
|
|
|
|
3,
|
|
,
|
|
#END
|
|
|