Files
2023-06-15 19:00:23 -05:00

371 lines
5.3 KiB
Plaintext

//TJADB Project
TITLE:Dokidoki☆Don-chan Sawagi
TITLEJA:どきどき☆どんちゃん騒ぎ
SUBTITLE:--Torine feat. Miki Narahashi
BPM:105
WAVE:Dokidoki☆Don-chan Sawagi.ogg
OFFSET:-2.958
DEMOSTART:47.676
COURSE:Oni
LEVEL:7
BALLOON:7,7,7
SCOREINIT:740
SCOREDIFF:198
#START
#GOGOSTART
1001201010012010,
1201010112012010,
1001201011070000,
#MEASURE 3/4
800000000003,
#MEASURE 4/4
,
0000000101100000,
#GOGOEND
1001201022202000,
1001201022022000,
1021021021001101,
0000221110002222,
1001201022202000,
1001201022022000,
1021021020201101,
0033,
1021201010212010,
1021201010201202,
1021201010212010,
1021201010201221,
00330336,
000000000000000000000008000000000000000000000000,
#GOGOSTART
1001201010012010,
1201010112012010,
1001201010110221,
0221022111200000,
1001201010012011,
#MEASURE 6/4
001011010022022022022021,
#MEASURE 4/4
0001201011070000,
#MEASURE 3/4
800000000004,
#MEASURE 4/4
,
0000000202200000,
#GOGOEND
1001201022202000,
1001201022022000,
1021021021001101,
0000221110002222,
1001201022202000,
1001201022022000,
1021021020201101,
0033,
1021201010212010,
1021201010201202,
1021201010212010,
1021201010201221,
00330336,
000000000000000000000008000000000000000000000000,
#GOGOSTART
1001201010012010,
1201010112012010,
1001201010110221,
0221022111200000,
1001201010012011,
#MEASURE 6/4
001011010022022022022021,
#MEASURE 4/4
0001201011070000,
#MEASURE 3/4
800010001103,
#MEASURE 4/4
0022120212002020,
1022120101100030,
#GOGOEND
#END
COURSE:Hard
LEVEL:6
BALLOON:6,6,6
SCOREINIT:940
SCOREDIFF:278
#START
#GOGOSTART
1001200010012000,
1021010100000000,
1000101011070000,
#MEASURE 3/4
800000000003,
#MEASURE 4/4
,
,
#GOGOEND
1001201000002000,
1001201000002000,
1001001001001101,
,
1001201000002000,
1001201000002000,
1001001000001101,
0033,
1021200010212000,
1021202010000000,
1021200010212000,
1021202010001111,
00330336,
0000000000000000000000000000000800000000000000000000000000000000,//20
#GOGOSTART
1001200010012000,
1021010100000000,
1001201010000111,
0111000111100000,
1001200010012001,
#MEASURE 6/4
000000001000000010001000000050000000000000000000000000000000000800000000000000000000000000000000,
#MEASURE 4/4
1000101011070000,
#MEASURE 3/4
800000000004,
#MEASURE 4/4
,
,
#GOGOEND
1001201000002000,
1001201000002000,
1001001001001101,
,
1001201000002000,
1001201000002000,
1001001000001101,
0033,
1021200010212000,
1021202010000000,
1021200010212000,
1021202010001111,
00330336,
0000000000000000000000000000000800000000000000000000000000000000,//44
#GOGOSTART
1001200010012000,
1021010100000000,
1001201010000111,
0111000111100000,
1001200010012001,
#MEASURE 6/4
000000001000000010001000000050000000000000000000000000000000000800000000000000000000000000000000,
#MEASURE 4/4
1000101011070000,
#MEASURE 3/4
800030003006,
#MEASURE 4/4
,
0000000000000000000000000000000800000000000000000000000030000000,//54
#GOGOEND
#END
COURSE:Normal
LEVEL:4
BALLOON:7,7,7
SCOREINIT:1010
SCOREDIFF:353
#START
#GOGOSTART
1212,
1110,
1170,
#MEASURE 3/4
800000000003,
#MEASURE 4/4
,
,
#GOGOEND
1001001000002000,
1001001000002000,
1001001001000001,
,
2002002000002000,
2002002000002000,
1001001000000001,
,
1000100010101005,
0000000000000000000000000000000800000000000000000000000000000000,
10101110,
11,
30330336,
0000000000000000000000000000000800000000000000000000000000000000,//20
#GOGOSTART
1212,
11101000,
1000100010000003,
0003000300300000,
1212,
#MEASURE 6/4
100000001000000010000000000050000000000000000000000000000000000800000000000000000000000000000000,
#MEASURE 4/4
1170,
#MEASURE 3/4
800000000004,
#MEASURE 4/4
,
,
#GOGOEND
1001001000002000,
1001001000002000,
1001001001000001,
,
2002002000002000,
2002002000002000,
1001001000000001,
,
1000100010101005,
0000000000000000000000000000000800000000000000000000000000000000,
10101110,
11,
30330336,
0000000000000000000000000000000800000000000000000000000000000000,//44
#GOGOSTART
1212,
11101000,
1000100010000003,
0003000300300000,
1212,
#MEASURE 6/4
100000001000000010000000000050000000000000000000000000000000000800000000000000000000000000000000,
#MEASURE 4/4
117,
#MEASURE 3/4
800030003006,
#MEASURE 4/4
,
0000000000000000000000000000000800000000000000000000000030000000,//54
#GOGOEND
#END
COURSE:Easy
LEVEL:3
BALLOON:4,5,4,5,4
SCOREINIT:920
SCOREDIFF:428
#START
#GOGOSTART
33,
1110,
1170,
#MEASURE 3/4
800000000003,
#MEASURE 4/4
,
,
#GOGOEND
1001001000000000,
1001001000000000,
1000001000000001,
,
2002002000000000,
2002002000000000,
1000001000000001,
,
1011,
5000000000000000000000000000000800000000000000000000000000000000,
1011,
11,
30303036,
0000000000000000000000000000000800000000000000000000000000000000,//20
#GOGOSTART
33,
1110,
1000100010000007,
08,
11,
#MEASURE 6/4
100000000000000010000000000050000000000000000000000000000000000800000000000000000000000000000000,
#MEASURE 4/4
1170,
#MEASURE 3/4
800000000004,
#MEASURE 4/4
,
,
#GOGOEND
1001001000000000,
1001001000000000,
1000001000000001,
,
2002002000000000,
2002002000000000,
1000001000000001,
,
1011,
5000000000000000000000000000000800000000000000000000000000000000,
1011,
11,
30303036,
0000000000000000000000000000000800000000000000000000000000000000,//44
#GOGOSTART
11,
1110,
1000100010000007,
08,
11,
#MEASURE 6/4
100000000000000010000000000050000000000000000000000000000000000800000000000000000000000000000000,
#MEASURE 4/4
1170,
#MEASURE 3/4
800030003006,
#MEASURE 4/4
,
0000000000000000000000000000000800000000000000000000000030000000,//54
#GOGOEND
#END