Files
2023-06-15 19:15:39 -05:00

396 lines
4.1 KiB
Plaintext

//TJADB Project
TITLE:DokoDON☆MatsuRhythm
TITLEJA:ドコDON☆まつリズム
SUBTITLE:--Masako Oogami feat. Chiako Takahashi
BPM:130
WAVE:DokoDON☆MatsuRhythm.ogg
OFFSET:-0.848
DEMOSTART:79.992
COURSE:Oni
LEVEL:7
SCOREINIT:470
SCOREDIFF:130
#START
2222,
500000000000000000000000000000000000000000000008,
0000000022222010,
1001101010002000,
1001101010002010,
1001101010102000,
1111101010004000,
1001101010002010,
1001101010002010,
1001101010022020,
1111101010004000,
1001101010011010,
11000020,
1001101010011010,
11002020,
1001101010022010,
11000021,
1001101010022020,
500000000000000000000000000000000008000000000000,
#GOGOSTART
1000200110100010,
0022202011102220,
1000200110100010,
0020102010201022,
#GOGOEND
11110111,
0144,
11110110,
4000400020011010,
1001102010011020,
1001101122220011,
1001102010011020,
1022222040004011,
1001101010022010,
1001101122220011,
1001102010011020,
500000000000000000000000000008000000000000000000,
#GOGOSTART
2011201020112010,
0010221022102210,
2011201020112010,
0011201120112011,
#GOGOEND
1000200020112100,
2000200011102220,
1000200020112100,
3000300030221030,
#GOGOSTART
0011101010222030,
0011101010222011,
1000200110102010,
0022201110201030,
0011101010222010,
0011101010222011,
1000200210112010,
0020111022201030,
0011201010222010,
0011201010222011,
2011201120112010,
0022201110202030,
04430433,
04430430,
2000200210200022,
1000000022222010,
#GOGOEND
1001201010002010,
1001201010002010,
1001101020022020,
1111101010012000,
#GOGOSTART
1001201110012011,
1001201110112022,
1011202010112010,
1111104011221040,
1122201030000000,
#END
COURSE:Hard
LEVEL:5
BALLOON:16
SCOREINIT:660
SCOREDIFF:170
#START
9,
,
8,
10011020,
10011020,
10111020,
10111040,
10011020,
10011020,
10111020,
10111040,
10011001,
11000020,
10011001,
11000000,
10011001,
11000020,
10011001,
500000000000000000000000000000000008000000000000,
#GOGOSTART
10101101,
02201000,
10101101,
01102220,
#GOGOEND
10110111,
0122,
10110110,
4444,
1001101010001000,
11000020,
1001101010001000,
11004040,
1001101010002000,
11000020,
1001101010002000,
500000000000000000000000000008000000000000000000,
#GOGOSTART
10201101,
02202020,
10201101,
01102220,
#GOGOEND
1000000000222000,
1022,
1000000000222000,
10101021,
#GOGOSTART
01101221,
01101221,
10201105,
000000000000000000000000000008000000000000100000,
01101221,
01101221,
10201101,
00000001,
01211021,
01211021,
10211201,
01101013,
03330444,
03330440,
20202202,
2000000022202000,
#GOGOEND
10011020,
10011021,
10111010,
1001101010004000,
#GOGOSTART
1001101010002000,
1001101010002020,
1001101010002000,
1011100010111000,
1011100030000000,
#END
COURSE:Normal
LEVEL:4
BALLOON:14,10,12
SCOREINIT:820
SCOREDIFF:220
#START
9,
,
8,
1001,
10000011,
12,
11103000,
1001,
10000011,
1022,
11103000,
1,
11000000,
1,
11002020,
1,
11000000,
12,
500000000000000000000000000008000000000000000000,
#GOGOSTART
10101101,
0110,
10001007,
,
#GOGOEND
8,
0111,
1,
2222,
1,
11002000,
1,
11003030,
3,
11002000,
11,
500000000000000000000000000008000000000000000000,
#GOGOSTART
10101101,
0220,
10101107,
,
#GOGOEND
8,
0011,
12,
30303001,
#GOGOSTART
01101001,
01101000,
20202005,
000000000000000000000000000008000000000000100000,
01101001,
01101000,
20202002,
00000003,
03303003,
03303000,
10102205,
000000000000000000000000000008000000000000300000,
00030003,
00030000,
20202200,
2,
#GOGOEND
10011000,
10011000,
10111010,
13,
#GOGOSTART
10022010,
10022010,
10011010,
11101110,
33303000,
#END
COURSE:Easy
LEVEL:3
BALLOON:12,4,6
SCOREINIT:710
SCOREDIFF:210
#START
9,
,
8,
1001,
1,
11,
1,
1001,
1,
1,
13,
1,
1100,
1,
1011,
1,
1100,
1,
500000000000000000000000000008000000000000000000,
#GOGOSTART
1110,
1110,
11,
7,
#GOGOEND
8,
0110,
1,
2220,
1,
2200,
1,
1011,
1,
2200,
11,
500000000000000000000000000008000000000000000000,
#GOGOSTART
1110,
2220,
11,
7,
#GOGOEND
8,
0011,
1,
3330,
#GOGOSTART
1110,
1110,
22,
500000000000000000000000000008000000000000000000,
1110,
2220,
11,
500000000000000000000000000008000000000000000000,
3330,
3330,
12,
500000000000000000000000000008000000000000000000,
33,
33,
2220,
500000000000000000000000000008000000000000000000,
#GOGOEND
1001,
1001,
12,
13,
#GOGOSTART
1001,
1001,
11,
11101000,
33303000,
#END