1171 lines
9.7 KiB
Plaintext
1171 lines
9.7 KiB
Plaintext
//TJADB Project
|
||
TITLE:Dragon of Time ~Kokuryu~
|
||
TITLEJA:刻竜 ~Kokuryu~
|
||
SUBTITLE:--Azu♪
|
||
SUBTITLEJA:Azu♪
|
||
BPM:120
|
||
WAVE:Dragon of Time ~Kokuryu~.ogg
|
||
OFFSET:-2.179
|
||
DEMOSTART:16.175
|
||
|
||
COURSE:Oni
|
||
LEVEL:10
|
||
BALLOON:2,2,3,3,4,4,5
|
||
SCOREINIT:1130
|
||
SCOREDIFF:0
|
||
|
||
|
||
#START
|
||
|
||
|
||
43,
|
||
43,
|
||
200000000000200020002000100200200200100200100000,
|
||
1022121010221210,
|
||
|
||
#GOGOSTART
|
||
#MEASURE 1/4
|
||
#BPMCHANGE 60
|
||
#SCROLL 4
|
||
3,
|
||
#SCROLL 8
|
||
,
|
||
,
|
||
,
|
||
#MEASURE 5/4
|
||
0
|
||
|
||
#GOGOEND
|
||
#BPMCHANGE 240
|
||
#SCROLL 2
|
||
4000,
|
||
#MEASURE 4/4
|
||
#SCROLL 1
|
||
1000200011102010,
|
||
0020102011200030,
|
||
0011202010201022,
|
||
11210203,
|
||
0011200011102010,
|
||
0020102011200030,
|
||
0011202010201022,
|
||
1010201111200010,
|
||
01201120,
|
||
1110201040400030,
|
||
0012202010201012,
|
||
22121203,
|
||
0011104010002000,
|
||
1111201011102030,
|
||
0022203000221030,
|
||
0021103000203000,
|
||
#SCROLL 0.75
|
||
1010201120001020,
|
||
0020102210102010,
|
||
0010002210102010,
|
||
01214040,
|
||
1010201120001020,
|
||
0020102210102010,
|
||
0022203000203000,
|
||
23023220,
|
||
#SCROLL 1
|
||
3000201000112000,
|
||
0040001120201000,
|
||
3000201000112000,
|
||
0040001120201222,
|
||
#MEASURE 3/4
|
||
100020100011,
|
||
100010200022,
|
||
100020100011,
|
||
100010211020,
|
||
111010201010,
|
||
111010202010,
|
||
111010201010,
|
||
212121212121,
|
||
110201,
|
||
110202,
|
||
110201,
|
||
120212,
|
||
110201,
|
||
110202,
|
||
110201,
|
||
120212,
|
||
111020100010,
|
||
211010112010,
|
||
111020100010,
|
||
211010112011,
|
||
211020102010,
|
||
221020102011,
|
||
103000400011,
|
||
111210404030,
|
||
302222111,
|
||
222122122,
|
||
102222111,
|
||
222112211,
|
||
102211221,
|
||
122122122,
|
||
121121121,
|
||
#MEASURE 2/4
|
||
121121,
|
||
#MEASURE 3/4
|
||
102222111,
|
||
222112112,
|
||
212212212,
|
||
212212212,
|
||
#MEASURE 4/4
|
||
1011201010002010,
|
||
0011201010102211,
|
||
2010201110102210,
|
||
0011201020102210,
|
||
3022203022203022,
|
||
2030222012201220,
|
||
1122201122201122,
|
||
#MEASURE 2/4
|
||
20112220,
|
||
|
||
#GOGOSTART
|
||
#MEASURE 1/4
|
||
#BPMCHANGE 60
|
||
#SCROLL 4
|
||
3,
|
||
#SCROLL 8
|
||
,
|
||
,
|
||
,
|
||
#MEASURE 5/4
|
||
0
|
||
|
||
#GOGOEND
|
||
#BPMCHANGE 240
|
||
#SCROLL 2
|
||
4000,
|
||
#MEASURE 3/4
|
||
#SCROLL 1
|
||
222102,
|
||
112211,
|
||
222102,
|
||
101022201010,
|
||
222102,
|
||
112211,
|
||
#MEASURE 4/4
|
||
2010201021102010,
|
||
2010221020102000,
|
||
30211021,
|
||
20212120,
|
||
30211021,
|
||
10211120,
|
||
3000102010221010,
|
||
1210201120121020,
|
||
2210101022101010,
|
||
2210201022102010,
|
||
2210221022102210,
|
||
200200100100200010001000200010001000200010001000,
|
||
#MEASURE 3/4
|
||
708708,
|
||
708708,
|
||
708708,
|
||
#MEASURE 1/4
|
||
7,
|
||
#MEASURE 1/24
|
||
#SCROLL 0.5
|
||
8,
|
||
#SCROLL 0.55
|
||
,
|
||
#SCROLL 0.6
|
||
,
|
||
#SCROLL 0.65
|
||
,
|
||
#SCROLL 0.7
|
||
,
|
||
#SCROLL 0.75
|
||
,
|
||
#SCROLL 0.8
|
||
,
|
||
#SCROLL 0.85
|
||
,
|
||
#SCROLL 0.9
|
||
,
|
||
#SCROLL 0.95
|
||
,
|
||
#SCROLL 1
|
||
,
|
||
#SCROLL 1.05
|
||
,
|
||
#SCROLL 1.1
|
||
,
|
||
#SCROLL 1.15
|
||
,
|
||
#SCROLL 1.2
|
||
,
|
||
#SCROLL 1.25
|
||
,
|
||
#SCROLL 1.3
|
||
,
|
||
#SCROLL 1.35
|
||
,
|
||
#SCROLL 1.4
|
||
,
|
||
#SCROLL 1.45
|
||
,
|
||
#SCROLL 1.5
|
||
,
|
||
#SCROLL 1.55
|
||
,
|
||
#SCROLL 1.6
|
||
,
|
||
#SCROLL 1.65
|
||
,
|
||
#SCROLL 1.7
|
||
,
|
||
#SCROLL 1.75
|
||
,
|
||
#SCROLL 1.8
|
||
,
|
||
#SCROLL 1.85
|
||
,
|
||
#SCROLL 1.9
|
||
,
|
||
#SCROLL 1.95
|
||
,
|
||
#SCROLL 2
|
||
,
|
||
#SCROLL 2.05
|
||
,
|
||
#SCROLL 2.1
|
||
,
|
||
#SCROLL 2.15
|
||
,
|
||
#SCROLL 2.2
|
||
,
|
||
#SCROLL 2.25
|
||
,
|
||
#MEASURE 2/4
|
||
#SCROLL 2.3
|
||
,
|
||
|
||
#MEASURE 3/4
|
||
#SCROLL 1
|
||
100022201020,
|
||
100022101020,
|
||
100021101020,
|
||
212122,
|
||
#MEASURE 4/4
|
||
0011
|
||
|
||
#GOGOSTART
|
||
202010102010,
|
||
0011201121102010,
|
||
0011201110222010,
|
||
000000100100200200200000100000001000100020002000,
|
||
|
||
#GOGOEND
|
||
0000
|
||
|
||
#GOGOSTART
|
||
200120211210,
|
||
0011202212211210,
|
||
0021121000200030,
|
||
000000100100200200100100100010001000100020002000,
|
||
2010221022112010,
|
||
2110211120112210,
|
||
2212102212102212,
|
||
1022121012201220,
|
||
1212121212121212,
|
||
1111222211221212,
|
||
|
||
#GOGOEND
|
||
,
|
||
,
|
||
|
||
#GOGOSTART
|
||
#MEASURE 1/4
|
||
#BPMCHANGE 60
|
||
#SCROLL 4
|
||
3,
|
||
#SCROLL 8
|
||
,
|
||
,
|
||
,
|
||
#MEASURE 5/4
|
||
0
|
||
#BPMCHANGE 240
|
||
#SCROLL 2
|
||
#GOGOEND
|
||
4000,
|
||
|
||
|
||
#END
|
||
|
||
|
||
COURSE:Hard
|
||
LEVEL:7
|
||
BALLOON:6
|
||
SCOREINIT:2100
|
||
SCOREDIFF:0
|
||
|
||
|
||
#START
|
||
|
||
|
||
43,
|
||
43,
|
||
43,
|
||
43,
|
||
#GOGOSTART
|
||
#MEASURE 1/4
|
||
#BPMCHANGE 60
|
||
#SCROLL 4
|
||
3,
|
||
#SCROLL 8
|
||
,
|
||
,
|
||
,
|
||
#MEASURE 5/4
|
||
0
|
||
#GOGOEND
|
||
#BPMCHANGE 240
|
||
#SCROLL 2
|
||
4000,
|
||
|
||
#MEASURE 4/4
|
||
#SCROLL 1
|
||
10201201,
|
||
02010203,
|
||
00221200,
|
||
11210203,
|
||
00201201,
|
||
02010203,
|
||
00221200,
|
||
11210201,
|
||
|
||
0212,
|
||
11104403,
|
||
00222200,
|
||
22220203,
|
||
00040020,
|
||
10201103,
|
||
02230223,
|
||
02230030,
|
||
|
||
#SCROLL 0.75
|
||
10212012,
|
||
02021021,
|
||
01021021,
|
||
01014040,
|
||
10212012,
|
||
02021021,
|
||
00030030,
|
||
03003000,
|
||
|
||
#SCROLL 1
|
||
30210020,
|
||
12002020,
|
||
30210020,
|
||
12002020,
|
||
|
||
#MEASURE 3/4
|
||
102100,
|
||
101200,
|
||
102100,
|
||
101200,
|
||
101212,
|
||
101212,
|
||
101212,
|
||
222222,
|
||
|
||
100201,
|
||
100202,
|
||
100201,
|
||
100202,
|
||
100201,
|
||
100202,
|
||
100201,
|
||
100202,
|
||
|
||
102101,
|
||
210120,
|
||
102101,
|
||
210120,
|
||
212121,
|
||
212121,
|
||
030303,
|
||
030303,
|
||
|
||
300200111,
|
||
111,
|
||
100200111,
|
||
122,
|
||
100200111,
|
||
122,
|
||
100100111,
|
||
#MEASURE 2/4
|
||
11,
|
||
|
||
#MEASURE 3/4
|
||
100200111,
|
||
122,
|
||
200200222,
|
||
222,
|
||
|
||
#MEASURE 4/4
|
||
10201021,
|
||
01201020,
|
||
21202121,
|
||
01202020,
|
||
30030030,
|
||
03001210,
|
||
30230230,
|
||
#MEASURE 2/4
|
||
2302,
|
||
#GOGOSTART
|
||
#MEASURE 1/4
|
||
#BPMCHANGE 60
|
||
#SCROLL 4
|
||
3,
|
||
#SCROLL 8
|
||
,
|
||
,
|
||
,
|
||
#MEASURE 5/4
|
||
0
|
||
#GOGOEND
|
||
#BPMCHANGE 240
|
||
#SCROLL 2
|
||
4000,
|
||
|
||
#MEASURE 3/4
|
||
#SCROLL 1
|
||
222100,
|
||
102210,
|
||
222100,
|
||
102210,
|
||
222100,
|
||
102210,
|
||
|
||
#MEASURE 4/4
|
||
20202120,
|
||
21202120,
|
||
30211020,
|
||
20212020,
|
||
30211020,
|
||
1212,
|
||
|
||
30121012,
|
||
10212120,
|
||
20112011,
|
||
20212120,
|
||
21212121,
|
||
21212020,
|
||
|
||
#MEASURE 3/4
|
||
33,
|
||
33,
|
||
33,
|
||
#MEASURE 1/4
|
||
3,
|
||
#MEASURE 1/24
|
||
#SCROLL 0.5
|
||
,
|
||
#SCROLL 0.55
|
||
,
|
||
#SCROLL 0.6
|
||
,
|
||
#SCROLL 0.65
|
||
,
|
||
#SCROLL 0.7
|
||
,
|
||
#SCROLL 0.75
|
||
,
|
||
#SCROLL 0.8
|
||
,
|
||
#SCROLL 0.85
|
||
,
|
||
#SCROLL 0.9
|
||
,
|
||
#SCROLL 0.95
|
||
,
|
||
#SCROLL 1
|
||
,
|
||
#SCROLL 1.05
|
||
,
|
||
#SCROLL 1.1
|
||
,
|
||
#SCROLL 1.15
|
||
,
|
||
#SCROLL 1.2
|
||
,
|
||
#SCROLL 1.25
|
||
,
|
||
#SCROLL 1.3
|
||
,
|
||
#SCROLL 1.35
|
||
,
|
||
#SCROLL 1.4
|
||
,
|
||
#SCROLL 1.45
|
||
,
|
||
#SCROLL 1.5
|
||
,
|
||
#SCROLL 1.55
|
||
,
|
||
#SCROLL 1.6
|
||
,
|
||
#SCROLL 1.65
|
||
,
|
||
#SCROLL 1.7
|
||
,
|
||
#SCROLL 1.75
|
||
,
|
||
#SCROLL 1.8
|
||
,
|
||
#SCROLL 1.85
|
||
,
|
||
#SCROLL 1.9
|
||
,
|
||
#SCROLL 1.95
|
||
,
|
||
#SCROLL 2
|
||
,
|
||
#SCROLL 2.05
|
||
,
|
||
#SCROLL 2.1
|
||
,
|
||
#SCROLL 2.15
|
||
,
|
||
#SCROLL 2.2
|
||
,
|
||
#SCROLL 2.25
|
||
,
|
||
#MEASURE 2/4
|
||
#SCROLL 2.3
|
||
,
|
||
|
||
#MEASURE 3/4
|
||
#SCROLL 1
|
||
102210,
|
||
102110,
|
||
101110,
|
||
202022,
|
||
#MEASURE 4/4
|
||
00
|
||
#GOGOSTART
|
||
221021,
|
||
01212021,
|
||
01211021,
|
||
01207000,
|
||
#GOGOEND
|
||
|
||
80
|
||
#GOGOSTART
|
||
202211,
|
||
00221111,
|
||
01210203,
|
||
0122,
|
||
20202121,
|
||
20202121,
|
||
|
||
5,
|
||
000000000000000000000000000000000000000008000000,
|
||
6,
|
||
000000000000000000000000000000000000000000000008,
|
||
#GOGOEND
|
||
,
|
||
,
|
||
|
||
#GOGOSTART
|
||
#MEASURE 1/4
|
||
#BPMCHANGE 60
|
||
#SCROLL 4
|
||
3,
|
||
#SCROLL 8
|
||
,
|
||
,
|
||
,
|
||
#MEASURE 5/4
|
||
0
|
||
#BPMCHANGE 240
|
||
#SCROLL 2
|
||
#GOGOEND
|
||
4000,
|
||
#END
|
||
|
||
COURSE:Normal
|
||
LEVEL:7
|
||
BALLOON:5,4
|
||
SCOREINIT:3280
|
||
SCOREDIFF:0
|
||
|
||
|
||
#START
|
||
43,
|
||
43,
|
||
43,
|
||
43,
|
||
#GOGOSTART
|
||
#MEASURE 1/4
|
||
#BPMCHANGE 60
|
||
#SCROLL 4
|
||
3,
|
||
#SCROLL 8
|
||
,
|
||
,
|
||
,
|
||
#MEASURE 5/4
|
||
0
|
||
#GOGOEND
|
||
#BPMCHANGE 240
|
||
#SCROLL 2
|
||
4000,
|
||
|
||
#MEASURE 4/4
|
||
#SCROLL 1
|
||
10101001,
|
||
02010203,
|
||
0220,
|
||
20200103,
|
||
00101001,
|
||
02010203,
|
||
0220,
|
||
20200201,
|
||
|
||
01,
|
||
10004005,
|
||
000000000000000000000000000000000008000000000000,
|
||
00020203,
|
||
00040000,
|
||
10101003,
|
||
00030003,
|
||
00030030,
|
||
|
||
#SCROLL 0.75
|
||
10002001,
|
||
01011001,
|
||
01011001,
|
||
01004040,
|
||
10002001,
|
||
01011001,
|
||
00030030,
|
||
03003000,
|
||
|
||
#SCROLL 1
|
||
30010020,
|
||
02001010,
|
||
30010020,
|
||
02001010,
|
||
|
||
#MEASURE 3/4
|
||
12,
|
||
12,
|
||
12,
|
||
12,
|
||
100202,
|
||
100202,
|
||
7,
|
||
008,
|
||
|
||
12,
|
||
12,
|
||
12,
|
||
1,
|
||
12,
|
||
12,
|
||
12,
|
||
1,
|
||
|
||
102200,
|
||
110110,
|
||
102200,
|
||
110110,
|
||
111,
|
||
111,
|
||
030303,
|
||
030300,
|
||
|
||
111,
|
||
111,
|
||
222,
|
||
222,
|
||
111,
|
||
111,
|
||
121,
|
||
#MEASURE 2/4
|
||
21,
|
||
|
||
#MEASURE 3/4
|
||
111,
|
||
111,
|
||
212,
|
||
121,
|
||
|
||
#MEASURE 4/4
|
||
10001001,
|
||
0110,
|
||
10001001,
|
||
0110,
|
||
30030030,
|
||
03003000,
|
||
11011011,
|
||
#MEASURE 2/4
|
||
0110,
|
||
#GOGOSTART
|
||
#MEASURE 1/4
|
||
#BPMCHANGE 60
|
||
#SCROLL 4
|
||
3,
|
||
#SCROLL 8
|
||
,
|
||
,
|
||
,
|
||
#MEASURE 5/4
|
||
0
|
||
#GOGOEND
|
||
#BPMCHANGE 240
|
||
#SCROLL 2
|
||
4000,
|
||
|
||
#MEASURE 3/4
|
||
#SCROLL 1
|
||
2,
|
||
220,
|
||
2,
|
||
220,
|
||
2,
|
||
220,
|
||
|
||
#MEASURE 4/4
|
||
22,
|
||
2222,
|
||
3210,
|
||
2222,
|
||
3210,
|
||
2222,
|
||
|
||
3210,
|
||
2222,
|
||
2121,
|
||
2222,
|
||
2222,
|
||
2222,
|
||
|
||
#MEASURE 3/4
|
||
33,
|
||
33,
|
||
33,
|
||
#MEASURE 1/4
|
||
3,
|
||
#MEASURE 1/24
|
||
#SCROLL 0.5
|
||
,
|
||
#SCROLL 0.55
|
||
,
|
||
#SCROLL 0.6
|
||
,
|
||
#SCROLL 0.65
|
||
,
|
||
#SCROLL 0.7
|
||
,
|
||
#SCROLL 0.75
|
||
,
|
||
#SCROLL 0.8
|
||
,
|
||
#SCROLL 0.85
|
||
,
|
||
#SCROLL 0.9
|
||
,
|
||
#SCROLL 0.95
|
||
,
|
||
#SCROLL 1
|
||
,
|
||
#SCROLL 1.05
|
||
,
|
||
#SCROLL 1.1
|
||
,
|
||
#SCROLL 1.15
|
||
,
|
||
#SCROLL 1.2
|
||
,
|
||
#SCROLL 1.25
|
||
,
|
||
#SCROLL 1.3
|
||
,
|
||
#SCROLL 1.35
|
||
,
|
||
#SCROLL 1.4
|
||
,
|
||
#SCROLL 1.45
|
||
,
|
||
#SCROLL 1.5
|
||
,
|
||
#SCROLL 1.55
|
||
,
|
||
#SCROLL 1.6
|
||
,
|
||
#SCROLL 1.65
|
||
,
|
||
#SCROLL 1.7
|
||
,
|
||
#SCROLL 1.75
|
||
,
|
||
#SCROLL 1.8
|
||
,
|
||
#SCROLL 1.85
|
||
,
|
||
#SCROLL 1.9
|
||
,
|
||
#SCROLL 1.95
|
||
,
|
||
#SCROLL 2
|
||
,
|
||
#SCROLL 2.05
|
||
,
|
||
#SCROLL 2.1
|
||
,
|
||
#SCROLL 2.15
|
||
,
|
||
#SCROLL 2.2
|
||
,
|
||
#SCROLL 2.25
|
||
,
|
||
#MEASURE 2/4
|
||
#SCROLL 2.3
|
||
,
|
||
|
||
#MEASURE 3/4
|
||
#SCROLL 1
|
||
101,
|
||
101,
|
||
101,
|
||
202,
|
||
#MEASURE 4/4
|
||
00
|
||
#GOGOSTART
|
||
101001,
|
||
00101001,
|
||
00101001,
|
||
0170,
|
||
#GOGOEND
|
||
|
||
80
|
||
#GOGOSTART
|
||
202011,
|
||
00202011,
|
||
00220203,
|
||
0122,
|
||
2121,
|
||
2121,
|
||
|
||
5,
|
||
000000000000000000000000000000000000000008000000,
|
||
6,
|
||
000000000000000000000000000000000000000000000008,
|
||
#GOGOEND
|
||
,
|
||
,
|
||
|
||
#GOGOSTART
|
||
#MEASURE 1/4
|
||
#BPMCHANGE 60
|
||
#SCROLL 4
|
||
3,
|
||
#SCROLL 8
|
||
,
|
||
,
|
||
,
|
||
#MEASURE 5/4
|
||
0
|
||
#BPMCHANGE 240
|
||
#SCROLL 2
|
||
#GOGOEND
|
||
4000,
|
||
#END
|
||
|
||
COURSE:Easy
|
||
LEVEL:5
|
||
BALLOON:5,4,3,3
|
||
SCOREINIT:5640
|
||
SCOREDIFF:0
|
||
|
||
|
||
#START
|
||
43,
|
||
43,
|
||
43,
|
||
43,
|
||
#GOGOSTART
|
||
#MEASURE 1/4
|
||
#BPMCHANGE 60
|
||
#SCROLL 4
|
||
3,
|
||
#SCROLL 8
|
||
,
|
||
,
|
||
,
|
||
#MEASURE 5/4
|
||
0
|
||
#GOGOEND
|
||
#BPMCHANGE 240
|
||
#SCROLL 2
|
||
4000,
|
||
|
||
#MEASURE 4/4
|
||
#SCROLL 1
|
||
10000001,
|
||
00010003,
|
||
0220,
|
||
20200003,
|
||
00000001,
|
||
00010003,
|
||
0220,
|
||
20200001,
|
||
|
||
01,
|
||
10004005,
|
||
000000000000000000000000000000000008000000000000,
|
||
00010103,
|
||
00070000,
|
||
80000003,
|
||
00030003,
|
||
00030000,
|
||
|
||
#SCROLL 0.75
|
||
10000001,
|
||
00001001,
|
||
00001001,
|
||
04,
|
||
10000001,
|
||
00001001,
|
||
00060000,
|
||
000000000000000000000008000000000000000000000000,
|
||
|
||
#SCROLL 1
|
||
3002,
|
||
0010,
|
||
3002,
|
||
0010,
|
||
|
||
#MEASURE 3/4
|
||
1,
|
||
1,
|
||
1,
|
||
1,
|
||
12,
|
||
12,
|
||
7,
|
||
008,
|
||
|
||
1,
|
||
1,
|
||
1,
|
||
1,
|
||
1,
|
||
1,
|
||
1,
|
||
1,
|
||
|
||
1,
|
||
2,
|
||
1,
|
||
2,
|
||
110,
|
||
110,
|
||
060000,
|
||
000000000000000008000000000000000000,
|
||
|
||
101,
|
||
101,
|
||
102,
|
||
201,
|
||
101,
|
||
102,
|
||
202,
|
||
#MEASURE 2/4
|
||
21,
|
||
|
||
#MEASURE 3/4
|
||
101,
|
||
102,
|
||
202,
|
||
201,
|
||
|
||
#MEASURE 4/4
|
||
10000001,
|
||
01,
|
||
10000001,
|
||
01,
|
||
5,
|
||
000000000000000000000008000000000000000000000000,
|
||
600000000000000000000000000000000000000000000008,
|
||
#MEASURE 2/4
|
||
,
|
||
#GOGOSTART
|
||
#MEASURE 1/4
|
||
#BPMCHANGE 60
|
||
#SCROLL 4
|
||
3,
|
||
#SCROLL 8
|
||
,
|
||
,
|
||
,
|
||
#MEASURE 5/4
|
||
0
|
||
#GOGOEND
|
||
#BPMCHANGE 240
|
||
#SCROLL 2
|
||
4000,
|
||
|
||
#MEASURE 3/4
|
||
#SCROLL 1
|
||
2,
|
||
020,
|
||
2,
|
||
020,
|
||
2,
|
||
020,
|
||
#MEASURE 4/4
|
||
2,
|
||
22,
|
||
|
||
31,
|
||
22,
|
||
31,
|
||
22,
|
||
31,
|
||
22,
|
||
|
||
2220,
|
||
2220,
|
||
2222,
|
||
2220,
|
||
#MEASURE 3/4
|
||
33,
|
||
33,
|
||
33,
|
||
#MEASURE 1/4
|
||
3,
|
||
#MEASURE 1/24
|
||
#SCROLL 0.5
|
||
,
|
||
#SCROLL 0.55
|
||
,
|
||
#SCROLL 0.6
|
||
,
|
||
#SCROLL 0.65
|
||
,
|
||
#SCROLL 0.7
|
||
,
|
||
#SCROLL 0.75
|
||
,
|
||
#SCROLL 0.8
|
||
,
|
||
#SCROLL 0.85
|
||
,
|
||
#SCROLL 0.9
|
||
,
|
||
#SCROLL 0.95
|
||
,
|
||
#SCROLL 1
|
||
,
|
||
#SCROLL 1.05
|
||
,
|
||
#SCROLL 1.1
|
||
,
|
||
#SCROLL 1.15
|
||
,
|
||
#SCROLL 1.2
|
||
,
|
||
#SCROLL 1.25
|
||
,
|
||
#SCROLL 1.3
|
||
,
|
||
#SCROLL 1.35
|
||
,
|
||
#SCROLL 1.4
|
||
,
|
||
#SCROLL 1.45
|
||
,
|
||
#SCROLL 1.5
|
||
,
|
||
#SCROLL 1.55
|
||
,
|
||
#SCROLL 1.6
|
||
,
|
||
#SCROLL 1.65
|
||
,
|
||
#SCROLL 1.7
|
||
,
|
||
#SCROLL 1.75
|
||
,
|
||
#SCROLL 1.8
|
||
,
|
||
#SCROLL 1.85
|
||
,
|
||
#SCROLL 1.9
|
||
,
|
||
#SCROLL 1.95
|
||
,
|
||
#SCROLL 2
|
||
,
|
||
#SCROLL 2.05
|
||
,
|
||
#SCROLL 2.1
|
||
,
|
||
#SCROLL 2.15
|
||
,
|
||
#SCROLL 2.2
|
||
,
|
||
#SCROLL 2.25
|
||
,
|
||
#MEASURE 2/4
|
||
#SCROLL 2.3
|
||
,
|
||
|
||
#MEASURE 3/4
|
||
#SCROLL 1
|
||
1,
|
||
1,
|
||
1,
|
||
2,
|
||
#MEASURE 4/4
|
||
00
|
||
#GOGOSTART
|
||
101001,
|
||
00001001,
|
||
00001001,
|
||
0700,
|
||
#GOGOEND
|
||
|
||
80
|
||
#GOGOSTART
|
||
202001,
|
||
00202001,
|
||
00070000,
|
||
82,
|
||
22,
|
||
2220,
|
||
|
||
5,
|
||
000000000000000000000000000000000000000008000000,
|
||
6,
|
||
000000000000000000000000000000000000000000000008,
|
||
#GOGOEND
|
||
,
|
||
,
|
||
|
||
#GOGOSTART
|
||
#MEASURE 1/4
|
||
#BPMCHANGE 60
|
||
#SCROLL 4
|
||
3,
|
||
#SCROLL 8
|
||
,
|
||
,
|
||
,
|
||
#MEASURE 5/4
|
||
0
|
||
#BPMCHANGE 240
|
||
#SCROLL 2
|
||
#GOGOEND
|
||
4000,
|
||
|
||
|
||
#END
|
||
|