Files
2023-06-15 19:05:10 -05:00

500 lines
4.6 KiB
Plaintext

//TJADB Project
TITLE:Famires Wars
TITLEJA:ファミレスウォーズ
SUBTITLE:--Mirai feat. Keiori Aihara
BPM:190
WAVE:Famires Wars.ogg
OFFSET:-1.500
DEMOSTART:32.434
COURSE:Oni
LEVEL:8
BALLOON:5,9,9
SCOREINIT:310
SCOREDIFF:90
#START
#MEASURE 2/4
22111030,
#MEASURE 4/4
0010400022111030,
0010400022111030,
0010400022111030,
0022103000221030,
0010400011112030,
0010400011112030,
0010400011112030,
0011203000111120,
1010200110200010,
1010200110200010,
1010200110200010,
1010200120112001,
1010200110202001,
1010200110202001,
1010201210202000,
44040708,
1010200210200020,
1010200210200020,
1010200210200020,
1010200210221001,
1010200110202001,
1010200110202001,
1010201210202000,
7008,
#GOGOSTART
1111,
1010001010222000,
1111,
1010001010222000,
1010220110102201,
1010220110102201,
1011220110112200,
5080,
1111,
1010001010222000,
1111,
1010001010222000,
1010220110102201,
1010220110102201,
1011220110112200,
50000008,
04040404,
34043034,
04300000,
#GOGOEND
1111100011111000,
11111000,
1111000011111010,
1010111110000030,
0010400022111030,
0010400022111030,
0010400022111030,
0022103000221030,
0010400011112030,
0010400011112030,
0011203000112060,
00080003,
0022104022111030,
0022104022111030,
0022104022111030,
0022103000221030,
0011204011112030,
0011204011112030,
0011203000112060,
00080000,
1010200110200010,
1010200110200010,
1010200110200010,
1010200120112001,
1010200110202001,
1010200110202001,
1010201210202000,
5008,
1010200210200020,
1010200210200020,
1010200210200020,
1010200210221001,
1010200110202001,
1010200110202001,
1010201210202000,
7008,
#GOGOSTART
2222,
2000202020112000,
2222,
2000202020112000,
1010220110102201,
1010220110102201,
1011220120112200,
5080,
2222,
2000202020112000,
2222,
2000202020112000,
1010220110102201,
1010220110102201,
1011220120112200,
50000008,
04040404,
34043034,
0040300022112200,
43034043,
0030400011221100,
34043034,
0040300022112200,
43034043,
03404000,
#GOGOEND
#END
COURSE:Hard
LEVEL:5
BALLOON:4,4,4,4
#START
#MEASURE 2/4
0003,
#MEASURE 4/4
00400003,
00400003,
00400006,
00080003,
00400003,
00400003,
00400006,
00080000,
10201201,
01201120,
10201201,
01201120,
10201201,
01201120,
10201120,
7008,
10202201,
02201120,
10202201,
02201120,
10201120,
10211020,
10201120,
7008,
#GOGOSTART
1111,
1010001010222000,
1111,
1010001010222000,
10201120,
10201120,
1110200011102000,
58,
1111,
1010001010222000,
1111,
1010001010222000,
10201120,
10201120,
1110200011102000,
50000008,
,
33044033,
04400000,
#GOGOEND
11,
1110,
11,
10101003,
00400003,
00400003,
00400006,
00080003,
00400003,
00400003,
00030006,
00080003,
00040003,
00040003,
00040006,
00080003,
00040003,
00040003,
00030006,
00080000,
10201201,
01201120,
10201201,
01201120,
10201201,
01201120,
10201120,
7008,
10202201,
02201120,
10202201,
02201120,
10201120,
10211020,
10201120,
7008,
#GOGOSTART
2222,
2000202020111000,
2222,
2000202020111000,
10201120,
10201120,
1110200011102000,
58,
2222,
2000202020111000,
2222,
2000202020111000,
10201120,
10201120,
1110200011102000,
50000008,
,
33044033,
04400000,
44033044,
03300000,
33044033,
04400000,
44033044,
03304000,//387combo
#GOGOEND
,
,
,
,
#END
COURSE:Normal
LEVEL:4
BALLOON:8,6,8,8,8,10
#START
#MEASURE 2/4
0003,
#MEASURE 4/4
00000003,
00000003,
00000006,
00080003,
00000003,
00000003,
00000006,
00080000,
1110,
1110,
12,
1,
1011,
12,
1110,
1,
1110,
1110,
12,
1,
1011,
12,
1110,
1,
#GOGOSTART
1111,
10111000,
1111,
10111000,
1122,
1122,
1122,
58,
1111,
10111000,
1111,
10111000,
1122,
12,
1122,
50000008,
,
7,
00800000,
#GOGOEND
,
,
,
00000003,
00000003,
00000003,
00000006,
00080003,
00000003,
00000006,
00080003,
00000003,
00000003,
00000003,
00000006,
00080003,
00000003,
00000009,
00000900,
8,
1110,
2220,
12,
1,
1011,
12,
1110,
1,
1110,
2220,
12,
1,
1011,
12,
1110,
1,
#GOGOSTART
2222,
20222000,
2222,
20222000,
1122,
1122,
1122,
58,
2222,
20222000,
2222,
20222000,
1122,
12,
1122,
50000008,
,
7,
00800000,
7,
00800000,
7,
00800000,
9,
09008000,//197combo
#GOGOEND
,
,
,
,
#END
COURSE:Easy
LEVEL:2
BALLOON:6,6,6,6,6,8
#START
#MEASURE 2/4
0003,
#MEASURE 4/4
00000003,
00000003,
00000006,
00000803,
00000003,
00000003,
00000006,
00080000,
1,
1,
11,
1,
11,
1,
11,
1,
1,
1,
11,
1,
11,
1,
11,
1,
#GOGOSTART
1111,
1,
1111,
1,
1,
1,
11,
58,
1111,
1,
1111,
1,
1,
1,
11,
50000008,
,
7,
00800000,
#GOGOEND
,
,
,
00000003,
00000003,
00000003,
00000006,
00080003,
00000003,
00000006,
00080003,
00000003,
00000003,
00000003,
00000006,
00080003,
00000003,
00000009,
00000900,
8,
1,
1,
22,
2,
11,
1,
11,
1,
1,
1,
22,
2,
11,
1,
11,
1,
#GOGOSTART
1111,
11,
1111,
11,
1,
1,
22,
58,
1111,
11,
1111,
11,
1,
1,
22,
50000008,
,
7,
00800000,
7,
00800000,
7,
00800000,
9,
09008000,//121combo
#GOGOEND
,
,
,
,
#END