767 lines
21 KiB
Plaintext
767 lines
21 KiB
Plaintext
//TJADB Project
|
|
TITLE:Fukubukuro Gyouza Jiman Shouten-gai no Uta
|
|
TITLEJA:福袋餃子自慢商店街の歌
|
|
SUBTITLE:--Ikebukuro Gyouza Stadium
|
|
BPM:116.349
|
|
WAVE:Fukubukuro Gyouza Jiman Shouten-gai no Uta.ogg
|
|
OFFSET:-2.116
|
|
DEMOSTART:72.244
|
|
|
|
|
|
COURSE:Oni
|
|
LEVEL:5
|
|
|
|
|
|
#START
|
|
|
|
|
|
,
|
|
,
|
|
,
|
|
1020102010111020,
|
|
1020102010222020,
|
|
1122102010222010,
|
|
500000000000000000000000000000000008000000000000,
|
|
0011101010004000,
|
|
1011102010111020,
|
|
1022102010222020,
|
|
1101102011011020,
|
|
1011101010202000,
|
|
1022202010222020,
|
|
1022102210002000,
|
|
|
|
#GOGOSTART
|
|
500000000000000000000000000000000008000000000000,
|
|
1001101010202000,
|
|
1021102010211020,
|
|
1020102110222020,
|
|
1001101010222020,
|
|
1111101010004000,
|
|
1000101011101000,
|
|
1111101010000000,
|
|
1000101011101000,
|
|
1111101010000000,
|
|
|
|
#GOGOEND
|
|
02020212,
|
|
02020212,
|
|
02020212,
|
|
02020000,
|
|
1011102010111020,
|
|
1011101000101000,
|
|
1011102010111020,
|
|
1011101000101000,
|
|
2000000022202000,
|
|
2222202020303000,
|
|
1011102010111020,
|
|
1022102010222020,
|
|
1101102011011020,
|
|
1011101010202000,
|
|
1022202010222020,
|
|
1022102210002000,
|
|
|
|
#GOGOSTART
|
|
500000000000000000000000000000000008000000000000,
|
|
1001101010202000,
|
|
1021102010211020,
|
|
1020102110222020,
|
|
1001101010222020,
|
|
1111101010404000,
|
|
3000101011101000,
|
|
1111101010000000,
|
|
3000101011101000,
|
|
1111101010000000,
|
|
3000101011101000,
|
|
1111101010000000,
|
|
3000101011101000,
|
|
1111101010000000,
|
|
|
|
#GOGOEND
|
|
500000000000000000000000000000000008000000000000,
|
|
10111030,
|
|
|
|
|
|
#END
|
|
|
|
|
|
COURSE:Hard
|
|
LEVEL:4
|
|
|
|
STYLE:Double
|
|
BALLOON:15
|
|
SCOREINIT:660
|
|
|
|
|
|
#START P1
|
|
|
|
|
|
,
|
|
000000000000000000000000000000000000000000000000,
|
|
000000000000000000000000000000000000000000000000,
|
|
100000000000100000000000100000100100100000000000,
|
|
100000000000100000000000100000200200200000000000,
|
|
100000100100100000000000100000200200200000000000,
|
|
500000000000000000000000000000000800000000000000,
|
|
000000100100100000100000100000000000200000000000,
|
|
1001102010011020,
|
|
1001102010000000,
|
|
1001102010011020,
|
|
1001101010000000,
|
|
1001101010011020,
|
|
1011101110003000,
|
|
|
|
#GOGOSTART
|
|
500000000000000000000000000000000008000000000000,
|
|
1001101010002000,
|
|
1020002010222020,
|
|
1020002010222020,
|
|
1011100010222000,
|
|
1110111010003000,
|
|
100000000000100000000000100100100000100000000000,
|
|
100100100000100000100000100000000000000000000000,
|
|
100000000000100000000000100100100000100000000000,
|
|
100100100000100000100000100000000000000000000000,
|
|
|
|
#GOGOEND
|
|
000000200000000000200000000000200000100000200000,
|
|
000000200000000000200000000000200000100000200000,
|
|
000000200000000000200000000000200000100000200000,
|
|
000000200000000000200000000000000000000000000000,
|
|
100000100100100000000000100000100100100000000000,
|
|
100000100100100000100000000000100000100000000000,
|
|
100000100100100000000000100000100100100000000000,
|
|
100000100100100000100000000000100000100000000000,
|
|
200000000000000000000000200200200000200000000000,
|
|
200200200000200000200000200000300000300000000000,
|
|
1001102010111020,
|
|
1000100010222020,
|
|
1001102010011020,
|
|
10101220,
|
|
1020002010222020,
|
|
1020002010222020,
|
|
|
|
#GOGOSTART
|
|
500000000000000000000000000000000008000000000000,
|
|
1001101010002000,
|
|
1001102010011020,
|
|
10101220,
|
|
1011100020222000,
|
|
1011100010404000,
|
|
100000000000100000000000100100100000100000000000,
|
|
100100100000100000100000100000000000000000000000,
|
|
100000000000100000000000100100100000100000000000,
|
|
100100100000100000100000100000000000000000000000,
|
|
100000000000100000100000100100100000100000000000,
|
|
100100100100100000100000100000000000000000000000,
|
|
100000000000100000100000100100100000100000000000,
|
|
100100100100100000100000100000000000000000000000,
|
|
|
|
#GOGOEND
|
|
900000000000000000000000000000000000000000800000,
|
|
|
|
|
|
#END
|
|
|
|
|
|
#START P2
|
|
|
|
|
|
,
|
|
000000000000000000000000000000000000000000000000,
|
|
000000000000000000000000000000000000000000000000,
|
|
100000000000100000000000100000100100100000000000,
|
|
100000000000100000000000100000200200200000000000,
|
|
100000100100100000000000100000200200200000000000,
|
|
500000000000000000000000000000000800000000000000,
|
|
000000100100100000100000100000000000200000000000,
|
|
1001102010011020,
|
|
1000100010222020,
|
|
1001102010011020,
|
|
10101220,
|
|
1020002010222020,
|
|
1020002010222020,
|
|
|
|
#GOGOSTART
|
|
500000000000000000000000000000000008000000000000,
|
|
1001101010002000,
|
|
1001102010011020,
|
|
10101220,
|
|
1011100010222000,
|
|
1110111010003000,
|
|
100000000000100000000000100100100000100000000000,
|
|
100100100000100000100000100000000000000000000000,
|
|
100000000000100000000000100100100000100000000000,
|
|
100100100000100000100000100000000000000000000000,
|
|
|
|
#GOGOEND
|
|
000000200000000000200000000000200000100000200000,
|
|
000000200000000000200000000000200000100000200000,
|
|
000000200000000000200000000000200000100000200000,
|
|
000000200000000000200000000000000000000000000000,
|
|
100000100100100000000000100000100100100000000000,
|
|
100000100100100000100000000000100000100000000000,
|
|
100000100100100000000000100000100100100000000000,
|
|
100000100100100000100000000000100000100000000000,
|
|
200000000000000000000000200200200000200000000000,
|
|
200200200000200000200000200000300000300000000000,
|
|
1001102010111020,
|
|
1001102010000000,
|
|
1001102010011020,
|
|
1001101010000000,
|
|
1001101010011020,
|
|
1011101110003000,
|
|
|
|
#GOGOSTART
|
|
500000000000000000000000000000000008000000000000,
|
|
1001101010002000,
|
|
1020002010222020,
|
|
1020002010222020,
|
|
1011100020222000,
|
|
1011100010404000,
|
|
100000000000100000000000100100100000100000000000,
|
|
100100100000100000100000100000000000000000000000,
|
|
100000000000100000000000100100100000100000000000,
|
|
100100100000100000100000100000000000000000000000,
|
|
100000000000100000100000100100100000100000000000,
|
|
100100100100100000100000100000000000000000000000,
|
|
100000000000100000100000100100100000100000000000,
|
|
100100100100100000100000100000000000000000000000,
|
|
|
|
#GOGOEND
|
|
900000000000000000000000000000000000000000800000,
|
|
|
|
|
|
#END
|
|
|
|
|
|
STYLE:Single
|
|
BALLOON:10
|
|
SCOREINIT:660
|
|
SCOREDIFF:120
|
|
|
|
|
|
#START
|
|
|
|
|
|
,
|
|
000000000000000000000000000000000000000000000000,
|
|
000000000000000000000000000000000000000000000000,
|
|
100000000000100000000000100000100100100000000000,
|
|
100000000000100000000000100000200200200000000000,
|
|
100000100100100000000000100000200200200000000000,
|
|
500000000000000000000000000000000800000000000000,
|
|
000000100100100000100000100000000000200000000000,
|
|
100000000100100000200000100000000100100000200000,
|
|
100000000100100000200000100000200000200000200000,
|
|
100000000100100000200000100000000100100000200000,
|
|
100000000100100000100000100000200000200000000000,
|
|
100000000200200000200000100000000200200000200000,
|
|
100000100100100000100100100000000000200000000000,
|
|
|
|
#GOGOSTART
|
|
500000000000000000000000000000000800000000000000,
|
|
100000000100100000100000100000000000200000000000,
|
|
100000000100100000200000100000000100100000200000,
|
|
100000000000100000000000100000200000200000000000,
|
|
100000100100100000000000100000200200200000000000,
|
|
100100100000100100100000100000000000400000000000,
|
|
100000000000100000000000100100100000100000000000,
|
|
100100100000100000100000100000000000000000000000,
|
|
100000000000100000000000100100100000100000000000,
|
|
100100100000100000100000100000000000000000000000,
|
|
|
|
#GOGOEND
|
|
000000200000000000200000000000200000100000200000,
|
|
000000200000000000200000000000200000100000200000,
|
|
000000200000000000200000000000200000100000200000,
|
|
000000200000000000200000000000000000000000000000,
|
|
100000100100100000000000100000100100100000000000,
|
|
100000100100100000100000000000100000100000000000,
|
|
100000100100100000000000100000100100100000000000,
|
|
100000100100100000100000000000100000100000000000,
|
|
200000000000000000000000200200200000200000000000,
|
|
200200200000200000200000200000300000300000000000,
|
|
100000000100100000200000100000100100100000200000,
|
|
100000000100100000200000100000200000200000200000,
|
|
100000000200200000200000100000200200200000200000,
|
|
100000000200200000200000100000200000200000000000,
|
|
100000000100100000200000100000100100100000200000,
|
|
100000100100100000100100100000000000200000000000,
|
|
|
|
#GOGOSTART
|
|
500000000000000000000000000000000800000000000000,
|
|
100000000100100000200000100000000000200000000000,
|
|
100000000100100000200000100000000100100000200000,
|
|
100000000000100000000000100000200000200000000000,
|
|
100000100100100000000000200000200200200000000000,
|
|
100000100100100000000000100000400000400000000000,
|
|
100000000000100000000000100100100000100000000000,
|
|
100100100000100000100000100000000000000000000000,
|
|
100000000000100000000000100100100000100000000000,
|
|
100100100000100000100000100000000000000000000000,
|
|
100000000000100000100000100100100000100000000000,
|
|
100100100100100000100000100000000000000000000000,
|
|
100000000000100000100000100100100000100000000000,
|
|
100100100100100000100000100000000000000000000000,
|
|
|
|
#GOGOEND
|
|
900000000000000000000000000000000000000000800000,
|
|
|
|
|
|
#END
|
|
|
|
|
|
COURSE:Normal
|
|
LEVEL:3
|
|
|
|
STYLE:Double
|
|
BALLOON:12
|
|
SCOREINIT:640
|
|
SCOREDIFF:160
|
|
|
|
|
|
#START P1
|
|
|
|
|
|
,
|
|
000000000000000000000000000000000000000000000000,
|
|
000000000000000000000000000000000000000000000000,
|
|
100000000000100000000000100000100000100000000000,
|
|
100000000000100000000000200000200000200000000000,
|
|
100000100000100000000000200000200000200000000000,
|
|
500000000000000000000000000000800000000000000000,
|
|
000000100000000000100000100000000000200000000000,
|
|
10101110,
|
|
10111000,
|
|
10111011,
|
|
10111000,
|
|
10101110,
|
|
10111000,
|
|
|
|
#GOGOSTART
|
|
500000000000000000000000000000000008000000000000,
|
|
10111000,
|
|
12020222,
|
|
02020222,
|
|
1120,
|
|
11103030,
|
|
300000000000000000000000100100100000100000000000,
|
|
100100100000100000000000100000000000000000000000,
|
|
300000000000000000000000100100100000100000000000,
|
|
100100100000100000000000100000000000000000000000,
|
|
|
|
#GOGOEND
|
|
100000200000000000200000000000200000000000200000,
|
|
000000200000000000200000000000200000100000200000,
|
|
000000200000000000200000000000200000100000200000,
|
|
000000200000000000200000000000000000000000000000,
|
|
100000000000100000000000100000100000100000000000,
|
|
100000100000100000100000000000100000100000000000,
|
|
100000000000100000000000100000100000100000000000,
|
|
100000100000100000100000000000100000100000000000,
|
|
200000000000000000000000200000200000200000000000,
|
|
200000000000000000000000000000300000300000000000,
|
|
10101110,
|
|
10100222,
|
|
11101110,
|
|
10100220,
|
|
12020222,
|
|
02020222,
|
|
|
|
#GOGOSTART
|
|
500000000000000000000000000000000008000000000000,
|
|
10111000,
|
|
10101110,
|
|
10111000,
|
|
1122,
|
|
1134,
|
|
300000000000000000000000100100100000100000000000,
|
|
100100100000100000000000100000000000000000000000,
|
|
100000000000000000000000100100100000100000000000,
|
|
100100100000100000000000100000000000000000000000,
|
|
300000000000200000000000100100100000100000000000,
|
|
100100100000100000000000100000000000000000000000,
|
|
300000000000200000000000100100100000100000000000,
|
|
100100100000100000000000100000000000000000000000,
|
|
|
|
#GOGOEND
|
|
900000000000000000000000000000000000000000800000,
|
|
|
|
|
|
#END
|
|
|
|
|
|
#START P2
|
|
|
|
|
|
,
|
|
000000000000000000000000000000000000000000000000,
|
|
000000000000000000000000000000000000000000000000,
|
|
100000000000100000000000100000100000100000000000,
|
|
100000000000100000000000200000200000200000000000,
|
|
100000100000100000000000200000200000200000000000,
|
|
500000000000000000000000000000800000000000000000,
|
|
000000100000000000100000100000000000200000000000,
|
|
10101110,
|
|
10100222,
|
|
10111011,
|
|
10100220,
|
|
12020222,
|
|
02020222,
|
|
|
|
#GOGOSTART
|
|
500000000000000000000000000000000008000000000000,
|
|
10111000,
|
|
10101110,
|
|
10111000,
|
|
1120,
|
|
11103030,
|
|
300000000000000000000000100100100000100000000000,
|
|
100100100000100000000000100000000000000000000000,
|
|
300000000000000000000000100100100000100000000000,
|
|
100100100000100000000000100000000000000000000000,
|
|
|
|
#GOGOEND
|
|
100000200000000000200000000000200000000000200000,
|
|
000000200000000000200000000000200000100000200000,
|
|
000000200000000000200000000000200000100000200000,
|
|
000000200000000000200000000000000000000000000000,
|
|
100000000000100000000000100000100000100000000000,
|
|
100000100000100000100000000000100000100000000000,
|
|
100000000000100000000000100000100000100000000000,
|
|
100000100000100000100000000000100000100000000000,
|
|
200000000000000000000000200000200000200000000000,
|
|
200000000000000000000000000000300000300000000000,
|
|
10101110,
|
|
10111000,
|
|
11101110,
|
|
10111000,
|
|
10101110,
|
|
10111000,
|
|
|
|
#GOGOSTART
|
|
500000000000000000000000000000000008000000000000,
|
|
10111000,
|
|
12020222,
|
|
02020222,
|
|
1122,
|
|
10100440,
|
|
300000000000000000000000100100100000100000000000,
|
|
100100100000100000000000100000000000000000000000,
|
|
100000000000000000000000100100100000100000000000,
|
|
100100100000100000000000100000000000000000000000,
|
|
300000000000200000000000100100100000100000000000,
|
|
100100100000100000000000100000000000000000000000,
|
|
300000000000200000000000100100100000100000000000,
|
|
100100100000100000000000100000000000000000000000,
|
|
|
|
#GOGOEND
|
|
900000000000000000000000000000000000000000800000,
|
|
|
|
|
|
#END
|
|
|
|
|
|
STYLE:Single
|
|
BALLOON:12
|
|
SCOREINIT:640
|
|
|
|
|
|
#START
|
|
|
|
|
|
,
|
|
000000000000000000000000000000000000000000000000,
|
|
000000000000000000000000000000000000000000000000,
|
|
100000000000100000000000100000100000100000000000,
|
|
100000000000100000000000200000200000200000000000,
|
|
100000100000100000000000200000200000200000000000,
|
|
500000000000000000000000000000800000000000000000,
|
|
000000100000000000100000100000000000200000000000,
|
|
100000000000100000000000100000100000100000000000,
|
|
100000000000000000000000200000200000200000000000,
|
|
100000000000100000100000100000000000100000100000,
|
|
100000000000000000000000200000200000200000000000,
|
|
100000000000100000000000100000100000100000000000,
|
|
100000000000100000000000100000000000000000000000,
|
|
|
|
#GOGOSTART
|
|
500000000000000000000000000000800000000000000000,
|
|
100000000000100000100000100000000000000000000000,
|
|
100000000000100000000000100000100000100000000000,
|
|
100000000000100000000000200000200000200000000000,
|
|
100000000000100000000000200000000000000000000000,
|
|
100000100000100000000000100000000000400000000000,
|
|
300000000000000000000000100100100000100000000000,
|
|
100100100000100000000000100000000000000000000000,
|
|
300000000000000000000000100100100000100000000000,
|
|
100100100000100000000000100000000000000000000000,
|
|
|
|
#GOGOEND
|
|
100000200000000000200000000000200000000000200000,
|
|
000000200000000000200000000000200000100000200000,
|
|
000000200000000000200000000000200000100000200000,
|
|
000000200000000000200000000000000000000000000000,
|
|
100000000000100000000000100000100000100000000000,
|
|
100000100000100000100000000000100000100000000000,
|
|
100000000000100000000000100000100000100000000000,
|
|
100000100000100000100000000000100000100000000000,
|
|
200000000000000000000000200000200000200000000000,
|
|
200000000000000000000000000000300000300000000000,
|
|
100000000000100000000000100000100000100000000000,
|
|
100000000000100000000000200000200000200000000000,
|
|
100000100000100000000000100000100000100000000000,
|
|
100000000000100000000000200000200000200000000000,
|
|
100000000000100000000000100000100000100000000000,
|
|
100000000000100000000000200000200000200000000000,
|
|
|
|
#GOGOSTART
|
|
500000000000000000000000000000800000000000000000,
|
|
100000000000100000100000100000000000000000000000,
|
|
100000000000100000000000100000100000100000000000,
|
|
100000000000100000000000200000200000200000000000,
|
|
100000000000100000000000200000000000200000000000,
|
|
100000000000100000000000300000000000400000000000,
|
|
300000000000000000000000100100100000100000000000,
|
|
100100100000100000000000100000000000000000000000,
|
|
100000000000000000000000100100100000100000000000,
|
|
100100100000100000000000100000000000000000000000,
|
|
300000000000200000000000100100100000100000000000,
|
|
100100100000100000000000100000000000000000000000,
|
|
300000000000200000000000100100100000100000000000,
|
|
100100100000100000000000100000000000000000000000,
|
|
|
|
#GOGOEND
|
|
900000000000000000000000000000000000000000800000,
|
|
|
|
|
|
#END
|
|
|
|
|
|
COURSE:Easy
|
|
LEVEL:3
|
|
|
|
STYLE:Double
|
|
BALLOON:15
|
|
SCOREINIT:780
|
|
|
|
|
|
#START P1
|
|
|
|
|
|
,
|
|
000000000000000000000000000000000000000000000000,
|
|
000000000000000000000000000000000000000000000000,
|
|
100000000000000000000000100000000000000000000000,
|
|
100000000000000000000000100000000000000000000000,
|
|
100000000000100000000000100000000000000000000000,
|
|
500000000000000000000000000000800000000000000000,
|
|
100000000000100000000000100000000000000000000000,
|
|
1011,
|
|
11,
|
|
1111,
|
|
11,
|
|
100000000000100000000000100000000000100000000000,
|
|
100000000000000000000000200000000000000000000000,
|
|
|
|
#GOGOSTART
|
|
500000000000000000000000000000800000000000000000,
|
|
100000000000000000000000100000000000000000000000,
|
|
1110,
|
|
1110,
|
|
12,
|
|
1110,
|
|
300000000000000000000000100000100000100000000000,
|
|
100000000000000000000000200000000000000000000000,
|
|
300000000000000000000000100000100000100000000000,
|
|
100000000000000000000000200000000000000000000000,
|
|
|
|
#GOGOEND
|
|
000000000000200000000000000000000000200000000000,
|
|
000000000000200000000000200000000000200000000000,
|
|
000000000000200000000000000000000000200000000000,
|
|
000000000000200000000000200000000000200000000000,
|
|
100000000000200000000000100000000000200000000000,
|
|
100000000000200000000000100000000000000000000000,
|
|
100000000000200000000000100000000000200000000000,
|
|
100000000000200000000000100000000000000000000000,
|
|
200000000000000000000000200000000000000000000000,
|
|
200000000000200000000000200000000000000000000000,
|
|
1011,
|
|
10000222,
|
|
0011,
|
|
10000220,
|
|
100000000000000000000000100000000000100000000000,
|
|
100000000000000000000000200000000000000000000000,
|
|
|
|
#GOGOSTART
|
|
500000000000000000000000000000800000000000000000,
|
|
100000000000100000000000100000000000000000000000,
|
|
1111,
|
|
12,
|
|
1212,
|
|
1004,
|
|
300000000000000000000000100000100000100000000000,
|
|
100000000000000000000000100000000000000000000000,
|
|
300000000000000000000000100000100000100000000000,
|
|
100000000000000000000000100000000000000000000000,
|
|
300000000000000000000000200000200000200000000000,
|
|
100000000000000000000000100000000000000000000000,
|
|
300000000000000000000000200000200000200000000000,
|
|
100000000000000000000000100000000000000000000000,
|
|
|
|
#GOGOEND
|
|
900000000000000000000000000000000000000000800000,
|
|
|
|
|
|
#END
|
|
|
|
|
|
#START P2
|
|
|
|
|
|
,
|
|
000000000000000000000000000000000000000000000000,
|
|
000000000000000000000000000000000000000000000000,
|
|
100000000000000000000000100000000000000000000000,
|
|
100000000000000000000000100000000000000000000000,
|
|
100000000000100000000000100000000000000000000000,
|
|
500000000000000000000000000000800000000000000000,
|
|
100000000000100000000000100000000000000000000000,
|
|
1011,
|
|
10000222,
|
|
0011,
|
|
10000220,
|
|
100000000000100000000000100000000000100000000000,
|
|
100000000000000000000000200000000000000000000000,
|
|
|
|
#GOGOSTART
|
|
500000000000000000000000000000800000000000000000,
|
|
100000000000000000000000100000000000000000000000,
|
|
1110,
|
|
1110,
|
|
12,
|
|
1004,
|
|
300000000000000000000000100000100000100000000000,
|
|
100000000000000000000000200000000000000000000000,
|
|
300000000000000000000000100000100000100000000000,
|
|
100000000000000000000000200000000000000000000000,
|
|
|
|
#GOGOEND
|
|
000000000000200000000000000000000000200000000000,
|
|
000000000000200000000000200000000000200000000000,
|
|
000000000000200000000000000000000000200000000000,
|
|
000000000000200000000000200000000000200000000000,
|
|
100000000000200000000000100000000000200000000000,
|
|
100000000000200000000000100000000000000000000000,
|
|
100000000000200000000000100000000000200000000000,
|
|
100000000000200000000000100000000000000000000000,
|
|
200000000000000000000000200000000000000000000000,
|
|
200000000000200000000000200000000000000000000000,
|
|
1011,
|
|
11,
|
|
1111,
|
|
11,
|
|
100000000000000000000000100000000000100000000000,
|
|
100000000000000000000000200000000000000000000000,
|
|
|
|
#GOGOSTART
|
|
500000000000000000000000000000800000000000000000,
|
|
100000000000100000000000100000000000000000000000,
|
|
1111,
|
|
12,
|
|
1212,
|
|
1210,
|
|
300000000000000000000000100000100000100000000000,
|
|
100000000000000000000000100000000000000000000000,
|
|
300000000000000000000000100000100000100000000000,
|
|
100000000000000000000000100000000000000000000000,
|
|
300000000000000000000000200000200000200000000000,
|
|
100000000000000000000000100000000000000000000000,
|
|
300000000000000000000000200000200000200000000000,
|
|
100000000000000000000000100000000000000000000000,
|
|
|
|
#GOGOEND
|
|
900000000000000000000000000000000000000000800000,
|
|
|
|
|
|
#END
|
|
|
|
|
|
STYLE:Single
|
|
BALLOON:15
|
|
SCOREINIT:790
|
|
SCOREDIFF:260
|
|
|
|
|
|
#START
|
|
|
|
|
|
,
|
|
000000000000000000000000000000000000000000000000,
|
|
000000000000000000000000000000000000000000000000,
|
|
100000000000000000000000100000000000000000000000,
|
|
100000000000000000000000100000000000000000000000,
|
|
100000000000100000000000100000000000000000000000,
|
|
500000000000000000000000000000800000000000000000,
|
|
100000000000100000000000100000000000000000000000,
|
|
100000000000000000000000100000000000100000000000,
|
|
100000000000000000000000100000000000000000000000,
|
|
100000000000100000000000100000000000100000000000,
|
|
100000000000000000000000200000000000000000000000,
|
|
100000000000100000000000100000000000100000000000,
|
|
100000000000000000000000200000000000000000000000,
|
|
|
|
#GOGOSTART
|
|
500000000000000000000000000000800000000000000000,
|
|
100000000000000000000000100000000000000000000000,
|
|
100000000000100000000000100000000000000000000000,
|
|
100000000000100000000000100000000000000000000000,
|
|
100000000000000000000000200000000000000000000000,
|
|
100000000000100000000000100000000000000000000000,
|
|
300000000000000000000000100000100000100000000000,
|
|
100000000000000000000000200000000000000000000000,
|
|
300000000000000000000000100000100000100000000000,
|
|
100000000000000000000000200000000000000000000000,
|
|
|
|
#GOGOEND
|
|
000000000000200000000000000000000000200000000000,
|
|
000000000000200000000000200000000000200000000000,
|
|
000000000000200000000000000000000000200000000000,
|
|
000000000000200000000000200000000000200000000000,
|
|
100000000000200000000000100000000000200000000000,
|
|
100000000000200000000000100000000000000000000000,
|
|
100000000000200000000000100000000000200000000000,
|
|
100000000000200000000000100000000000000000000000,
|
|
200000000000000000000000200000000000000000000000,
|
|
200000000000200000000000200000000000000000000000,
|
|
100000000000000000000000100000000000100000000000,
|
|
100000000000000000000000200000000000000000000000,
|
|
100000000000000000000000100000000000100000000000,
|
|
100000000000000000000000200000000000000000000000,
|
|
100000000000000000000000100000000000100000000000,
|
|
100000000000000000000000200000000000000000000000,
|
|
|
|
#GOGOSTART
|
|
500000000000000000000000000000800000000000000000,
|
|
100000000000100000000000100000000000000000000000,
|
|
100000000000100000000000100000000000100000000000,
|
|
100000000000000000000000200000000000000000000000,
|
|
100000000000200000000000100000000000200000000000,
|
|
100000000000200000000000100000000000000000000000,
|
|
300000000000000000000000100000100000100000000000,
|
|
100000000000000000000000100000000000000000000000,
|
|
300000000000000000000000100000100000100000000000,
|
|
100000000000000000000000100000000000000000000000,
|
|
300000000000000000000000200000200000200000000000,
|
|
100000000000000000000000100000000000000000000000,
|
|
300000000000000000000000200000200000200000000000,
|
|
100000000000000000000000100000000000000000000000,
|
|
|
|
#GOGOEND
|
|
900000000000000000000000000000000000000000800000,
|
|
|
|
|
|
#END
|
|
|