Files
2023-06-15 19:00:23 -05:00

408 lines
15 KiB
Plaintext

//TJADB Project
TITLE:Haikei, Gakkou ni te...
TITLEJA:拝啓、学校にて…
SUBTITLE:--Go Shiina feat. Ryoko Shiraishi
BPM:130.01
WAVE:Haikei, Gakkou ni te....ogg
OFFSET:-3.581
DEMOSTART:72.666
COURSE:Oni
LEVEL:7
BALLOON:20,30
SCOREINIT:610
SCOREDIFF:150
#START
#SCROLL 1.02
000000000000000000000000000000000000000000000000,
#BPMCHANGE 131.88
#SCROLL 1
000000000000000000000000000000000000000000000000,
#BPMCHANGE 133.37
#SCROLL 0.99
000000000000000000000000000000000000000000000000,
#BPMCHANGE 132.8
000000000000000000000000100100100000100100100000,
#BPMCHANGE 132
#SCROLL 1
100000000000200000100100100000100000200000000000,
100000000000200000100100100000100000200000000000,
100000000000200000100100100000200000000000100000,
000000100000100100000100100100100000100000000000,
100000000000300000000000100000000000300000000000,
100000100100100000000000100000100000100000000000,
100000000000200000000000000000100000200000000000,
500000000000000000000000000000000000000008000000,
200000000200000000000000000000200000200000000000,
200000000200000000000000200200200000200000000000,
200000000200000000000000000000200000200000000000,
200000000200000000000000200200200000200000000000,
200000000000000000000000200000000000000000000000,
200000000000000000000000000000000000000000000000,
200000000000000000000000000000000000000000000000,
200000000000000000000000200000000000000000000000,
100000000100100000100000100000000100100000100000,
100000000100100000100000100100000100100100100000,
100000000100100000100000100000000100100000100000,
100000000100100000100000100100000100100100100000,
100000000100100000100000100000000100100000100000,
100000000100100000100000100000000100100100100000,
100000000100100000100000100000000100100000100000,
100000000100100000100000100100200200100100200200,
100000000100200000100000000000100000200000000000,
100000000100200000100000000100100000200000000000,
100000000100200000100000000000100000200000000000,
100000000100200000100000100100100000100100100000,
100000000100200000100000000000100000200000000000,
100000000100200000100000000100100000200000000000,
100000000000000000100000200000000000000000000000,
100000000000000000100000200000000000000000000000,
300000300000000000000000200000100000000000000000,
500000000000000000000000000000000008000000000000,
#GOGOSTART
100000000000200000100000000000100000200000100100,
000000100000200000100000000100100000200000100000,
100000000000200000100000100000100000200000100100,
000000100000200000100000000100100000200000100000,
100000000000200000100000000000100000200000100100,
000000100000200000100000000100100000200000100000,
100000000000200000100000100000100000200000100000,
100100100000100100100000100100100000100100100000,
300000000000300000000000000000100000100000200000,
100000000000200000100100000100200000100000200000,
100000100000200000100100000100200000200000100000,
100000100000200000100100000200200000100000200000,
100000000000200000100100000100200000100000200000,
100000000000200000100100000100200000100000200000,
100000100000200000000000100000100100000100200000,
100000000000200000100000100000100100000000200000,
100000000100200000100000100200100000200000100000,
100000000100200000100000100200100100200000100000,
100000000100200000100000100200100000200000100000,
100000000100200000100000100200100100200100100000,
200200100100200000100100000000100000100000000000,
300000300000300000300000000000000000000000000000,
100100200000200200100000100100200000200200100000,
100100200000200200100000100100200000200200100000,
#GOGOEND
700000000000000000000000000000000000000000000000,
#SCROLL 1.02
000000000000000000000000000000000800000000000000,
#BPMCHANGE 130.41
#SCROLL 1
100000000000000000000000100000200200100100200200,
#BPMCHANGE 132.83
#SCROLL 0.99
100000000000100000000000100000200200100100200200,
#BPMCHANGE 131.57
#SCROLL 1.01
100000100100100000100100100000100100200200100000,
#BPMCHANGE 132.2
#SCROLL 0.99
100000100100100000100100100000100100200200100000,
#BPMCHANGE 132
#SCROLL 1.02
600000000000000000000000000000000000000008000000,
#SCROLL 1.01
300000000000700000000000000000000000000000000000,
#SCROLL 0.96
000000000000000000000000000000000000000000000800,
#END
COURSE:Hard
LEVEL:4
BALLOON:14,6
SCOREINIT:810
SCOREDIFF:180
#START
000000000000000000000000000000000000000000000000,
#BPMCHANGE 131.88
000000000000000000000000000000000000000000000000,
#BPMCHANGE 133.37
000000000000000000000000000000000000000000000000,
#BPMCHANGE 132.79
000000000000000000000000100100100000100000000000,
#BPMCHANGE 132
300000000000200000000000100100100000100000000000,
100000000000200000000000100100100000100000000000,
100000000000100000100100100000100000000000100000,
000000000000000000000000000000000000100100100000,
100000000000300000000000100000000000300000000000,
100000000000100000000000100000100000100000000000,
100000000000000000000000000000000000000000000000,
300000000000000000000000000000000000000000000000,
100000000100000000100000000000100000100000000000,
100000000100000000100000000000100000100000000000,
100000000100000000100000000000100000100000000000,
100000000100000000100000000000100000100000000000,
100000000000000000000000100000000000000000000000,
100000000000000000000000100000000000000000000000,
100000000000000000000000100000000000000000000000,
100000000000100000000000000000000000000000000000,
100000000100100000000000100000000000100000000000,
100000000100100000000000100000000000000000000000,
100000000100100000000000100000000000100000000000,
100000000100100000000000100000000000000000000000,
100000000000100000000000100000000000100000000000,
100000000000000000000000100000000000000000000000,
100000000000000000000000100000000000100000000000,
100000000000100000100000000000000000000000000000,
100000100100100000000000100000000000000000000000,
100000100100100000000000100000000000000000000000,
100000100100100000000000100000000000000000000000,
100000100100100000000000100000000000100000000000,
100000100100100000000000100000000000100000000000,
100000100100100000000000100000000000100000000000,
500000000000000000000000000000000000000000000000,
000000000000000000000800000000000000100000100000,
100000000000100000100000000000100000000000100000,
000000000000100000100000000000000000000000000000,
#GOGOSTART
300000000000000000300000000000100000100000100000,
000000000000200000000000000000100000100000100000,
100000000000200000000000100000100000200000000000,
100000000000200000000000100000100000200000000000,
100000000000200000100000000000100000200000000000,
100000000000200000100000000000100000200000000000,
100000000000000000000000000000100000100000000000,
100100100000100000000000100100100000100000000000,
100000000000200000000000100000100000200000200000,
100000000000200000000000100000100000200000000000,
100000000000200000000000100000100000200000200000,
100000000000200000000000100000100000200000000000,
100000000000200000100000000000100000200000000000,
100000000000200000100000000000100000200000000000,
100000000000200000000000100000100000200000200000,
100000000000200000000000100000100000200000200000,
100000000000000000000000000000100000100000200000,
200000000000000000100000000000100000100000200000,
200000000000000000100000000000100000100000500000,
000000000000000000000800000000000000100000000000,
100000000000200000100000000000100000200000000000,
300000300000300000300000000000000000100000100000,
500000000000000000000000000000000000000000000800,
000000000000100000000000100000100000100000000000,
#GOGOEND
700000000000000000000000000000000000000000000000,
000000000000000000000000000800000000000000000000,
#BPMCHANGE 130.4
100000000000000000000000100000000000000000000000,
#BPMCHANGE 132.83
100000000000000000000000100000000000000000000000,
#BPMCHANGE 131.56
500000000000000000000000000000000000000800000000,
#BPMCHANGE 132.19
700000000000000000000000000800000000000000000000,
#BPMCHANGE 132
600000000000000000000000000000000000000800000000,
000000000000300000000000000000000000000000000000,
#END
COURSE:Normal
LEVEL:3
BALLOON:10,14,6
SCOREINIT:1020
SCOREDIFF:290
#START
000000000000000000000000000000000000000000000000,
#BPMCHANGE 131.88
000000000000000000000000000000000000000000000000,
#BPMCHANGE 133.37
000000000000000000000000000000000000000000000000,
#BPMCHANGE 132.79
000000000000000000000000000000000000000000000000,
#BPMCHANGE 132
300000000000000000000000100000000000000000000000,
100000000000100000000000100000000000100000000000,
100000000000000000000000000000700000000000000000,
000000000000000000000000800000000000000000000000,
100000000000000000000000100000000000000000000000,
100000000000000000000000100000000000000000000000,
500000000000000000000000000000000000000000000000,
000000000000000000800000000000000000000000000000,
100000000000000000100000000000000000000000000000,
100000000000000000100000000000000000000000000000,
100000000000100000000000100000000000000000000000,
100000000000100000100000000000000000000000000000,
200000000000000000000000200000000000000000000000,
200000000000000000000000000000000000000000000000,
200000000000000000000000200000000000000000000000,
200000000000000000000000000000000000000000000000,
300000000000000000100000100000000000000000000000,
100000000000000000100000100000000000000000000000,
100000000000000000100000100000000000000000000000,
100000000000100000000000000000000000000000000000,
100000000000000000000000100000000000000000000000,
100000000000000000000000100000000000100000000000,
100000000000000000000000100000000000000000000000,
100000000000100000000000000000000000000000000000,
100000000000000000000000200000000000000000000000,
100000000000100000000000200000000000000000000000,
100000000000000000000000200000000000000000000000,
100000000000100000000000200000000000000000000000,
100000000000000000000000200000000000000000000000,
100000000000100000000000200000000000000000000000,
500000000000000000000000000000000000000000000000,
000000000000000000800000000000000000000000000000,
100000000000000000000000100000000000000000000000,
100000000000100000000000100000000000000000000000,
#GOGOSTART
300000000000000000300000000000000000100000000000,
100000000000000000000000000000000000100000000000,
100000000000000000000000100000000000100000000000,
100000000000000000000000000000000000000000000000,
100000000000000000000000100000000000100000000000,
100000000000000000000000100000000000100000000000,
100000000000000000000000100000000000100000000000,
100000000000000000000000000000000000300000000000,
300000000000000000300000000000000000100000000000,
100000000000000000000000000000000000100000000000,
100000000000000000000000100000000000100000000000,
100000000000000000000000000000000000100000000000,
100000000000000000000000100000000000100000000000,
100000000000000000000000100000000000100000000000,
100000000000000000000000100000000000100000000000,
100000000000000000000000100000000000100000000000,
100000000000000000000000000000000000200000000000,
200000000000000000000000200000000000200000000000,
200000000000000000000000200000000000200000000000,
500000000000000000800000000000000000100000000000,
100000000000000000000000100000000000000000000000,
100000100000100000100000000000000000000000000000,
100000000000000000000000100000000000000000000000,
100000000000100000000000100000000000100000000000,
#GOGOEND
700000000000000000000000000000000000000000000000,
000000000000000000000000800000000000000000000000,
#BPMCHANGE 130.4
100000000000000000000000100000000000000000000000,
#BPMCHANGE 132.83
100000000000000000000000100000000000000000000000,
#BPMCHANGE 131.56
500000000000000000000000000000000000800000000000,
#BPMCHANGE 132.19
700000000000000000000000800000000000000000000000,
#BPMCHANGE 132
600000000000000000000000000000000000800000000000,
000000000000300000000000000000000000000000000000,
#END
COURSE:Easy
LEVEL:2
BALLOON:10,14,6
SCOREINIT:880
SCOREDIFF:280
#START
000000000000000000000000000000000000000000000000,
#BPMCHANGE 131.88
000000000000000000000000000000000000000000000000,
#BPMCHANGE 133.37
000000000000000000000000000000000000000000000000,
#BPMCHANGE 132.79
000000000000000000000000000000000000000000000000,
#BPMCHANGE 132
300000000000000000000000000000000000000000000000,
100000000000000000000000000000000000000000000000,
100000000000000000000000000000700000000000000000,
000000000000000000000000800000000000000000000000,
100000000000000000000000100000000000000000000000,
100000000000000000000000100000000000000000000000,
500000000000000000000000000000000000000000000000,
000000000000800000000000000000000000000000000000,
100000000000000000000000000000000000000000000000,
100000000000000000000000000000000000000000000000,
100000000000000000000000100000000000000000000000,
100000000000000000000000100000000000000000000000,
200000000000000000000000200000000000000000000000,
200000000000000000000000000000000000000000000000,
200000000000000000000000200000000000000000000000,
200000000000000000000000000000000000000000000000,
300000000000000000000000000000000000000000000000,
100000000000000000000000100000000000000000000000,
100000000000000000000000100000000000000000000000,
100000000000100000000000000000000000000000000000,
100000000000000000000000100000000000000000000000,
100000000000000000000000100000000000000000000000,
100000000000000000000000100000000000000000000000,
100000000000100000000000000000000000000000000000,
100000000000000000000000200000000000000000000000,
100000000000000000000000200000000000000000000000,
100000000000000000000000200000000000000000000000,
100000000000000000000000000000000000000000000000,
100000000000000000000000200000000000000000000000,
100000000000000000000000200000000000000000000000,
500000000000000000000000000000000000000000000000,
000000000000800000000000000000000000000000000000,
100000000000000000000000100000000000000000000000,
100000000000100000000000100000000000000000000000,
#GOGOSTART
300000000000000000000000000000000000100000000000,
100000000000000000000000000000000000100000000000,
100000000000000000000000100000000000100000000000,
100000000000000000000000000000000000000000000000,
100000000000000000000000100000000000100000000000,
100000000000000000000000000000000000000000000000,
100000000000000000000000100000000000100000000000,
100000000000000000000000000000000000000000000000,
300000000000000000000000000000000000100000000000,
100000000000000000000000000000000000100000000000,
100000000000000000000000100000000000100000000000,
100000000000000000000000000000000000100000000000,
100000000000000000000000100000000000000000000000,
100000000000000000000000000000000000100000000000,
100000000000000000000000100000000000000000000000,
100000000000000000000000100000000000100000000000,
100000000000000000000000000000000000000000000000,
100000000000000000000000000000000000000000000000,
100000000000000000000000000000000000000000000000,
300000000000000000000000000000000000000000000000,
100000000000000000000000100000000000000000000000,
100000000000100000000000100000000000000000000000,
100000000000000000000000100000000000000000000000,
100000000000000000000000100000000000000000000000,
#GOGOEND
700000000000000000000000000000000000000000000000,
000000000000000000000000800000000000000000000000,
#BPMCHANGE 130.4
100000000000000000000000100000000000000000000000,
#BPMCHANGE 132.83
100000000000000000000000100000000000000000000000,
#BPMCHANGE 131.56
500000000000000000000000000000000000800000000000,
#BPMCHANGE 132.19
700000000000000000000000800000000000000000000000,
#BPMCHANGE 132
600000000000000000000000000000000000800000000000,
000000000000300000000000000000000000000000000000,
#END