599 lines
12 KiB
Plaintext
599 lines
12 KiB
Plaintext
//TJADB Project
|
||
TITLE:Heisei Taiko Kaidou ~Bachi no Onna~
|
||
TITLEJA:平成太鼓街道~バチの女~
|
||
SUBTITLE:--Jesahm feat. Naoko Ishikawa
|
||
BPM:100.03
|
||
WAVE:Heisei Taiko Kaidou ~Bachi no Onna~.ogg
|
||
OFFSET:-2.729
|
||
DEMOSTART:22.216
|
||
|
||
COURSE:Oni
|
||
LEVEL:5
|
||
SCOREINIT:1180
|
||
SCOREDIFF:300
|
||
|
||
|
||
#START
|
||
|
||
|
||
#SCROLL 1.05
|
||
000111100222,
|
||
#BPMCHANGE 101.82
|
||
#SCROLL 1.03
|
||
200111
|
||
#BPMCHANGE 96.63
|
||
#SCROLL 1.08
|
||
100222,
|
||
#BPMCHANGE 102.44
|
||
#SCROLL 1.02
|
||
200000101010
|
||
#BPMCHANGE 99.01
|
||
#SCROLL 1.06
|
||
100200200200,
|
||
#BPMCHANGE 101.51
|
||
#SCROLL 1.03
|
||
500000000000000000000008
|
||
#BPMCHANGE 99.1
|
||
#SCROLL 1.06
|
||
000000000000100000000000,
|
||
#BPMCHANGE 100.29
|
||
#SCROLL 1.04
|
||
1022201011011020,
|
||
|
||
#BPMCHANGE 99.89
|
||
#SCROLL 1.05
|
||
#SECTION
|
||
#BRANCHSTART p,75,90
|
||
#N
|
||
2011102022022010,
|
||
#BPMCHANGE 99.73
|
||
2011102010003000,
|
||
#BPMCHANGE 100.77
|
||
#SCROLL 1.04
|
||
3,
|
||
#BPMCHANGE 99.28
|
||
#SCROLL 1.05
|
||
0010101020002000,
|
||
#BPMCHANGE 101.04
|
||
#SCROLL 1.04
|
||
1130,
|
||
#BPMCHANGE 99.59
|
||
#SCROLL 1.05
|
||
01112020,
|
||
#BPMCHANGE 100.01
|
||
10121000,
|
||
#BPMCHANGE 100
|
||
01112020,
|
||
21112021,
|
||
|
||
#E
|
||
2011102022022010,
|
||
#BPMCHANGE 99.73
|
||
2011102010003000,
|
||
#BPMCHANGE 100.77
|
||
#SCROLL 1.04
|
||
3,
|
||
#BPMCHANGE 99.28
|
||
#SCROLL 1.05
|
||
0010101120202000,
|
||
#BPMCHANGE 101.04
|
||
#SCROLL 1.04
|
||
1130,
|
||
#BPMCHANGE 99.59
|
||
#SCROLL 1.05
|
||
0010101120202000,
|
||
#BPMCHANGE 100.01
|
||
10121000,
|
||
#BPMCHANGE 100
|
||
0010101120202000,
|
||
2010111020002010,
|
||
|
||
#M
|
||
2011102022022010,
|
||
#BPMCHANGE 99.73
|
||
2011102010003000,
|
||
#BPMCHANGE 100.77
|
||
#SCROLL 1.04
|
||
3,
|
||
#BPMCHANGE 99.28
|
||
#SCROLL 1.05
|
||
0010111220222000,
|
||
#BPMCHANGE 101.04
|
||
#SCROLL 1.04
|
||
1130,
|
||
#BPMCHANGE 99.59
|
||
#SCROLL 1.05
|
||
0010111220222020,
|
||
#BPMCHANGE 100.01
|
||
10121000,
|
||
#BPMCHANGE 100
|
||
0011201120112020,
|
||
2210221010102010,
|
||
|
||
#SECTION
|
||
#BRANCHSTART p,75,90
|
||
#N
|
||
2010111020202221,
|
||
03000011,
|
||
#GOGOSTART
|
||
1011202210002000,
|
||
#BPMCHANGE 99.18
|
||
#SCROLL 1.06
|
||
1011202210002000,
|
||
|
||
#E
|
||
2010112020202121,
|
||
03000011,
|
||
#GOGOSTART
|
||
1111222210002000,
|
||
#BPMCHANGE 99.18
|
||
#SCROLL 1.06
|
||
1111222210002000,
|
||
|
||
#M
|
||
2212111022112221,
|
||
03000011,
|
||
#GOGOSTART
|
||
1211221210002000,
|
||
#BPMCHANGE 99.18
|
||
#SCROLL 1.06
|
||
1211221210002000,
|
||
|
||
#BPMCHANGE 100.78
|
||
#SCROLL 1.04
|
||
#SECTION
|
||
#BRANCHSTART p,75,90
|
||
#N
|
||
1120221011211020,
|
||
#BPMCHANGE 100
|
||
#SCROLL 1.05
|
||
500000000000000000000000000000000008000000000000,
|
||
#BPMCHANGE 100.09
|
||
11221020,
|
||
|
||
#E
|
||
1112221011211020,
|
||
#BPMCHANGE 100
|
||
#SCROLL 1.05
|
||
500000000000000000000000000000000008000000000000,
|
||
#BPMCHANGE 100.09
|
||
1010222010002020,
|
||
|
||
#M
|
||
1121212011211020,
|
||
#BPMCHANGE 100
|
||
#SCROLL 1.05
|
||
500000000000000000000000000000000008000000000000,
|
||
#BPMCHANGE 100.09
|
||
1011222030002020,
|
||
|
||
#BPMCHANGE 99.64
|
||
#SECTION
|
||
#BRANCHSTART p,75,90
|
||
#N
|
||
100000010000000010000000100000200200200000200000,
|
||
#BPMCHANGE 104.97
|
||
#SCROLL 1
|
||
100000010000000010000000
|
||
#BPMCHANGE 97.03
|
||
#SCROLL 1.08
|
||
100000010000000010000000,
|
||
#BPMCHANGE 99.2
|
||
#SCROLL 1.06
|
||
500000000000000000000008
|
||
#GOGOEND
|
||
#BPMCHANGE 98.51
|
||
000000000000200020002000,
|
||
#BPMCHANGE 100
|
||
#SCROLL 1.05
|
||
200111100222,
|
||
#BPMCHANGE 102
|
||
#SCROLL 1.03
|
||
200111
|
||
#BPMCHANGE 98.13
|
||
#SCROLL 1.07
|
||
100222,
|
||
#BPMCHANGE 100.29
|
||
#SCROLL 1.04
|
||
200000000000100010001000
|
||
#BPMCHANGE 96.42
|
||
#SCROLL 1.09
|
||
100000100000100000100000,
|
||
#BPMCHANGE 105.19
|
||
#SCROLL 1
|
||
500000000000000000000008
|
||
#BPMCHANGE 99.54
|
||
#SCROLL 1.05
|
||
000000000000100000000000,
|
||
#BPMCHANGE 100.57
|
||
#SCROLL 1.04
|
||
1022201011011020,
|
||
#BPMCHANGE 99.42
|
||
#SCROLL 1.05
|
||
2011102022022010,
|
||
#BPMCHANGE 99.25
|
||
2011102010003000,
|
||
500000000000000000000000000000000000000000000008,
|
||
|
||
#E
|
||
100000010000000010000000100000200200200000200000,
|
||
#BPMCHANGE 104.97
|
||
#SCROLL 1
|
||
100000010000000010000000
|
||
#BPMCHANGE 97.03
|
||
#SCROLL 1.08
|
||
100000010000000010000000,
|
||
#BPMCHANGE 99.2
|
||
#SCROLL 1.06
|
||
500000000000000000000008
|
||
#GOGOEND
|
||
#BPMCHANGE 98.51
|
||
000000000000200020002000,
|
||
#BPMCHANGE 100
|
||
#SCROLL 1.05
|
||
200111100222,
|
||
#BPMCHANGE 102
|
||
#SCROLL 1.03
|
||
200111
|
||
#BPMCHANGE 98.13
|
||
#SCROLL 1.07
|
||
100222,
|
||
#BPMCHANGE 100.29
|
||
#SCROLL 1.04
|
||
200000000000100010001000
|
||
#BPMCHANGE 96.42
|
||
#SCROLL 1.09
|
||
100000100000100000100000,
|
||
#BPMCHANGE 105.19
|
||
#SCROLL 1
|
||
500000000000000000000008
|
||
#BPMCHANGE 99.54
|
||
#SCROLL 1.05
|
||
000000000000100000000000,
|
||
#BPMCHANGE 100.57
|
||
#SCROLL 1.04
|
||
1022201011011020,
|
||
#BPMCHANGE 99.42
|
||
#SCROLL 1.05
|
||
2011102022022010,
|
||
#BPMCHANGE 99.25
|
||
2011102010003000,
|
||
500000000000000000000000000000000000000000000008,
|
||
|
||
#M
|
||
100000010000000010000000100000200200200000400000,
|
||
#BPMCHANGE 104.97
|
||
#SCROLL 1
|
||
100000010000000010000000
|
||
#BPMCHANGE 97.03
|
||
#SCROLL 1.08
|
||
100000010000000010000000,
|
||
#BPMCHANGE 99.2
|
||
#SCROLL 1.06
|
||
500000000000000000000008
|
||
#GOGOEND
|
||
#BPMCHANGE 98.51
|
||
000000000000200020002000,
|
||
#BPMCHANGE 100
|
||
#SCROLL 1.05
|
||
200111100222,
|
||
#BPMCHANGE 102
|
||
#SCROLL 1.03
|
||
200111
|
||
#BPMCHANGE 98.13
|
||
#SCROLL 1.07
|
||
100222,
|
||
#BPMCHANGE 100.29
|
||
#SCROLL 1.04
|
||
200000000000100010001000
|
||
#BPMCHANGE 96.42
|
||
#SCROLL 1.09
|
||
100000100000100000100000,
|
||
#BPMCHANGE 105.19
|
||
#SCROLL 1
|
||
500000000000000000000008
|
||
#BPMCHANGE 99.54
|
||
#SCROLL 1.05
|
||
000000000000100000000000,
|
||
#BPMCHANGE 100.57
|
||
#SCROLL 1.04
|
||
1122201011012020,
|
||
#BPMCHANGE 99.42
|
||
#SCROLL 1.05
|
||
2211102022021010,
|
||
#BPMCHANGE 99.25
|
||
2211102010003000,
|
||
500000000000000000000000000000000000000000000008,
|
||
|
||
|
||
#END
|
||
|
||
|
||
COURSE:Hard
|
||
LEVEL:4
|
||
SCOREINIT:1090
|
||
SCOREDIFF:280
|
||
|
||
|
||
#START
|
||
|
||
|
||
#SCROLL 1.05
|
||
000000000000100010001000100000000000200020002000,
|
||
#BPMCHANGE 101.82
|
||
#SCROLL 1.03
|
||
200000000000100010001000
|
||
#BPMCHANGE 96.63
|
||
#SCROLL 1.08
|
||
100000000000200020002000,
|
||
#BPMCHANGE 102.44
|
||
#SCROLL 1.02
|
||
200000000000100010001000
|
||
#BPMCHANGE 99.01
|
||
#SCROLL 1.06
|
||
100000200000200000200000,
|
||
#BPMCHANGE 101.51
|
||
#SCROLL 1.03
|
||
500000000000000000000080
|
||
#BPMCHANGE 99.1
|
||
#SCROLL 1.06
|
||
000000000000100000000000,
|
||
#BPMCHANGE 100.29
|
||
#SCROLL 1.04
|
||
100000200200200000100000100100000100100000200000,
|
||
#BPMCHANGE 99.89
|
||
#SCROLL 1.05
|
||
200000100100100000200000200200000200200000100000,
|
||
#BPMCHANGE 99.73
|
||
200000100100100000200000100000000000300000000000,
|
||
#BPMCHANGE 100.77
|
||
#SCROLL 1.04
|
||
300000000000000000000000000000000000000000000000,
|
||
#BPMCHANGE 99.28
|
||
#SCROLL 1.05
|
||
000000100000100000100000200000000000200000000000,
|
||
#BPMCHANGE 101.04
|
||
#SCROLL 1.04
|
||
100000000000100000000000300000000000000000000000,
|
||
#BPMCHANGE 99.59
|
||
#SCROLL 1.05
|
||
000000100000100000100000200000000000200000000000,
|
||
#BPMCHANGE 100.01
|
||
100000000000100000200000100000000000000000000000,
|
||
#BPMCHANGE 100
|
||
000000100000100000100000200000000000200000000000,
|
||
200000100000100000100000200000000000200000100000,
|
||
200000100000100100100000200000200000200200200100,
|
||
000000300000000000000000000000000000100000100000,
|
||
|
||
#GOGOSTART
|
||
100000100100200000200200100000000000200000000000,
|
||
#BPMCHANGE 99.18
|
||
#SCROLL 1.06
|
||
100000100100200000200200100000000000200000000000,
|
||
#BPMCHANGE 100.78
|
||
#SCROLL 1.04
|
||
100100200000200200100000100100200100100000200000,
|
||
#BPMCHANGE 100
|
||
#SCROLL 1.05
|
||
500000000000000000000000000000000080000000000000,
|
||
#BPMCHANGE 100.09
|
||
100000100000200000200000100000000000200000000000,
|
||
#BPMCHANGE 99.64
|
||
100000001000000010000000100000200200200000200000,
|
||
#BPMCHANGE 104.97
|
||
#SCROLL 1
|
||
100000001000000010000000
|
||
#BPMCHANGE 97.03
|
||
#SCROLL 1.08
|
||
100000001000000010000000,
|
||
#BPMCHANGE 99.2
|
||
#SCROLL 1.06
|
||
500000000000000000000080
|
||
|
||
#GOGOEND
|
||
#BPMCHANGE 98.51
|
||
000000000000200020002000,
|
||
#BPMCHANGE 100
|
||
#SCROLL 1.05
|
||
200000000000100010001000100000000000200020002000,
|
||
#BPMCHANGE 102
|
||
#SCROLL 1.03
|
||
200000000000100010001000
|
||
#BPMCHANGE 98.13
|
||
#SCROLL 1.07
|
||
100000000000200020002000,
|
||
#BPMCHANGE 100.29
|
||
#SCROLL 1.04
|
||
200000000000100010001000
|
||
#BPMCHANGE 96.42
|
||
#SCROLL 1.09
|
||
100000100000100000100000,
|
||
#BPMCHANGE 105.19
|
||
#SCROLL 1
|
||
500000000000000000000080
|
||
#BPMCHANGE 99.54
|
||
#SCROLL 1.05
|
||
000000000000100000000000,
|
||
#BPMCHANGE 100.57
|
||
#SCROLL 1.04
|
||
100000200200200000100000100100000100100000200000,
|
||
#BPMCHANGE 99.42
|
||
#SCROLL 1.05
|
||
200000100100100000200000200200000200200000100000,
|
||
#BPMCHANGE 99.25
|
||
200000100100100000200000100000000000300000000000,
|
||
500000000000000000000000000000000000000000000008,
|
||
|
||
|
||
#END
|
||
|
||
|
||
COURSE:Normal
|
||
LEVEL:4
|
||
SCOREINIT:1300
|
||
SCOREDIFF:420
|
||
|
||
|
||
#START
|
||
|
||
|
||
#BPMCHANGE 100
|
||
000000000000100010001000100000000000000000000000,
|
||
000000000000100010001000100000000000000000000000,
|
||
000000000000100010001000100000000000000000000000,
|
||
500000000000000000000800000000000000100000000000,
|
||
100000000000000000100000200000000000000000100000,
|
||
200000000000000000100000200000000000000000100000,
|
||
100000100000100000200000100000000000300000000000,
|
||
300000000000000000000000000000000000000000000000,
|
||
000000100000100000100000100000000000200000000000,
|
||
100000000000100000000000300000000000000000000000,
|
||
000000100000100000100000100000000000200000000000,
|
||
100000000000100000200000100000000000000000000000,
|
||
000000100000100000100000200000000000200000000000,
|
||
000000100000100000100000200000000000200000000000,
|
||
100000100000100100100000200000200000200200200000,
|
||
000000300000000000000000000000000000100000100000,
|
||
100000000000100100100000200000000000000000000000,
|
||
100000100000100000000000100100100000200000000000,
|
||
100000000000100000100000100000000000200000000000,
|
||
500000000000000000000000000000000800000000000000,
|
||
100000000000000000100000100000000000200000000000,
|
||
100000001000000010000000100000000000000000000000,
|
||
100000001000000010000000100000001000000010000000,
|
||
500000000000000000000800000000000000000000000000,
|
||
000000000000100010001000100000000000000000000000,
|
||
000000000000100010001000100000000000000000000000,
|
||
000000000000100010001000100000000000100000100000,
|
||
500000000000000000000800000000000000100000000000,
|
||
100000000000000000100000200000000000000000100000,
|
||
200000000000000000100000200000000000000000100000,
|
||
100000100000100000200000100000000000300000000000,
|
||
500000000000000000000000000000000000000000000008,
|
||
|
||
|
||
#END
|
||
|
||
|
||
COURSE:Easy
|
||
LEVEL:4
|
||
SCOREINIT:1370
|
||
SCOREDIFF:690
|
||
|
||
|
||
#START
|
||
|
||
|
||
000000000000100000100000100000000000000000000000,
|
||
#BPMCHANGE 101.82
|
||
#SCROLL 0.98
|
||
000000000000100000100000
|
||
#BPMCHANGE 96.63
|
||
#SCROLL 1.03
|
||
100000000000000000000000,
|
||
#BPMCHANGE 102.44
|
||
#SCROLL 0.97
|
||
000000000000100000100000
|
||
#BPMCHANGE 99.01
|
||
#SCROLL 1.01
|
||
100000000000000000000000,
|
||
#BPMCHANGE 101.51
|
||
#SCROLL 0.98
|
||
500000000000000000800000
|
||
#BPMCHANGE 99.1
|
||
#SCROLL 1
|
||
000000000000000000000000,
|
||
#BPMCHANGE 100.29
|
||
#SCROLL 0.99
|
||
100000000000000000100000100000000000000000000000,
|
||
#BPMCHANGE 99.89
|
||
#SCROLL 1
|
||
200000000000000000200000200000000000000000000000,
|
||
#BPMCHANGE 99.73
|
||
100000000000000000000000200000000000300000000000,
|
||
#BPMCHANGE 100.77
|
||
#SCROLL 0.99
|
||
300000000000000000000000000000000000000000000000,
|
||
#BPMCHANGE 99.28
|
||
#SCROLL 1
|
||
000000000000100000000000100000000000200000000000,
|
||
#BPMCHANGE 101.04
|
||
#SCROLL 0.98
|
||
100000000000100000000000100000000000000000000000,
|
||
#BPMCHANGE 99.59
|
||
#SCROLL 1
|
||
000000000000100000000000100000000000200000000000,
|
||
#BPMCHANGE 100.01
|
||
100000000000100000000000100000000000000000000000,
|
||
#BPMCHANGE 100
|
||
000000000000100000000000200000000000200000000000,
|
||
000000000000100000000000200000000000200000000000,
|
||
100000000000000000000000200000000000100000000000,
|
||
000000300000000000000000000000000000000000000000,
|
||
|
||
#GOGOSTART
|
||
100000000000100000100000100000000000000000000000,
|
||
#BPMCHANGE 99.18
|
||
100000100000100000000000100000000000000000000000,
|
||
#BPMCHANGE 100.78
|
||
#SCROLL 0.99
|
||
100000000000100000000000100000000000200000000000,
|
||
#BPMCHANGE 100
|
||
#SCROLL 1
|
||
500000000000000000000000000000000008000000000000,
|
||
#BPMCHANGE 100.09
|
||
#SCROLL 0.99
|
||
100000000000000000000000100000000000000000000000,
|
||
#BPMCHANGE 99.64
|
||
#SCROLL 1
|
||
100000000000000000000000100000000000000000000000,
|
||
#BPMCHANGE 104.97
|
||
#SCROLL 0.95
|
||
300000000000000000000000
|
||
#BPMCHANGE 97.03
|
||
#SCROLL 1.03
|
||
300000000000000000000000,
|
||
#BPMCHANGE 99.2
|
||
#SCROLL 1
|
||
500000000000000000800000
|
||
|
||
#GOGOEND
|
||
#BPMCHANGE 98.51
|
||
#SCROLL 1.01
|
||
000000000000000000000000,
|
||
#BPMCHANGE 100
|
||
#SCROLL 1
|
||
000000000000100000100000100000000000000000000000,
|
||
#BPMCHANGE 102
|
||
#SCROLL 0.98
|
||
000000000000100000100000
|
||
#BPMCHANGE 98.13
|
||
#SCROLL 1.01
|
||
100000000000000000000000,
|
||
#BPMCHANGE 100.29
|
||
#SCROLL 0.99
|
||
000000000000100000100000
|
||
#BPMCHANGE 96.42
|
||
#SCROLL 1.03
|
||
100000000000100000000000,
|
||
#BPMCHANGE 105.19
|
||
#SCROLL 0.95
|
||
#SCROLL 1
|
||
500000000000000000800000
|
||
#BPMCHANGE 99.54
|
||
000000000000100000000000,
|
||
#BPMCHANGE 100.57
|
||
#SCROLL 0.99
|
||
100000000000000000000000100000000000000000000000,
|
||
#BPMCHANGE 99.42
|
||
#SCROLL 1
|
||
100000000000000000000000200000000000000000000000,
|
||
#BPMCHANGE 99.25
|
||
100000000000000000000000200000000000300000000000,
|
||
500000000000000000000000000000000000000000000008,
|
||
|
||
|
||
#END
|
||
|