767 lines
9.1 KiB
Plaintext
767 lines
9.1 KiB
Plaintext
//TJADB Project
|
|
TITLE:Hibike! Taiko no Tatsujin -Long Version-
|
|
TITLEJA:響け!太鼓の達人 -Long Version-
|
|
SUBTITLE:--Ichirou Mizuki & Mitsuko Horie & Hironobu Kageyama
|
|
BPM:165
|
|
WAVE:Hibike! Taiko no Tatsujin -Long Version-.ogg
|
|
OFFSET:-2.442
|
|
DEMOSTART:181.878
|
|
|
|
COURSE:Oni
|
|
LEVEL:7
|
|
BALLOON:25,20
|
|
SCOREINIT:290
|
|
SCOREDIFF:63
|
|
|
|
|
|
#START
|
|
|
|
|
|
20020000,
|
|
20020000,
|
|
20002002,
|
|
0200,
|
|
13,
|
|
7,
|
|
0008,
|
|
2210102210104000,
|
|
00102001,
|
|
02010200,
|
|
00102001,
|
|
02010200,
|
|
00102001,
|
|
02010200,
|
|
03003003,
|
|
0022202020222000,
|
|
11110220,
|
|
11110000,
|
|
1010111000112000,
|
|
1011101000000000,
|
|
11110120,
|
|
11110220,
|
|
12101210,
|
|
12121030,
|
|
22220110,
|
|
22220000,
|
|
2020222000221000,
|
|
2022202000000000,
|
|
22220210,
|
|
22220110,
|
|
21202120,
|
|
21212040,
|
|
33000101,
|
|
01201000,
|
|
33000101,
|
|
01101120,
|
|
1011201000112000,
|
|
1120201000202000,
|
|
1001201010012010,
|
|
10211220,
|
|
1110111011111000,
|
|
33000020,
|
|
|
|
#GOGOSTART
|
|
1120102010112000,
|
|
1120120210202000,
|
|
1022100010221010,
|
|
03300000,
|
|
2011202020112020,
|
|
2000201000112000,
|
|
30303303,
|
|
0000002210102000,
|
|
1120102010112000,
|
|
1120120210202000,
|
|
1022100010221010,
|
|
03300000,
|
|
1202100012021000,
|
|
1110111011111000,
|
|
33300000,
|
|
500000000000000000000000000000000008000000000000,
|
|
00022220,
|
|
10120000,
|
|
,
|
|
10102002,
|
|
01102212,
|
|
03003003,
|
|
0022102210221000,
|
|
|
|
#GOGOEND
|
|
11110220,
|
|
11110220,
|
|
1010111000222000,
|
|
1011101000112022,
|
|
11110120,
|
|
11110120,
|
|
12101210,
|
|
1020102011202000,
|
|
22220110,
|
|
22220110,
|
|
2020222000111000,
|
|
2022202000221011,
|
|
22220210,
|
|
22220110,
|
|
21202120,
|
|
2010201022101000,
|
|
33000101,
|
|
01201110,
|
|
33000101,
|
|
0011100011112000,
|
|
1011201000112000,
|
|
1120201000202000,
|
|
1001201010012010,
|
|
10211220,
|
|
1110111011111000,
|
|
33000020,
|
|
|
|
#GOGOSTART
|
|
1120102010112000,
|
|
1120120210202020,
|
|
1022100010221010,
|
|
03300000,
|
|
2011202020112020,
|
|
2010201000112020,
|
|
30303303,
|
|
2210102210102000,
|
|
1120102010112000,
|
|
1120120210202020,
|
|
1022102010221010,
|
|
03300000,
|
|
1202100012021000,
|
|
1110111011111000,
|
|
33300000,
|
|
|
|
#GOGOEND
|
|
30201120,
|
|
11210120,
|
|
10201120,
|
|
11210222,
|
|
1000221000221000,
|
|
2010002210112210,
|
|
03003003,
|
|
00301110,
|
|
11210220,
|
|
11210220,
|
|
22122121,
|
|
1010221000002000,
|
|
1000112000102000,
|
|
1120001120201000,
|
|
11221122,
|
|
1110202011102000,
|
|
600000000000000000000000000000000000000008000000,
|
|
3,
|
|
3,
|
|
3,
|
|
3,
|
|
33,
|
|
33000303,
|
|
0011101000303030,
|
|
30303303,
|
|
2210102210104000,
|
|
|
|
#GOGOSTART
|
|
1120102010112000,
|
|
1120120210202020,
|
|
1022102010221010,
|
|
03300000,
|
|
1202100012021000,
|
|
1110111011111000,
|
|
33300000,
|
|
500000000000000000000000000000000000000000000008,
|
|
|
|
#GOGOEND
|
|
,
|
|
|
|
#GOGOSTART
|
|
1120102010112020,
|
|
1120120210202020,
|
|
1022102010221010,
|
|
03300000,
|
|
2011202020112020,
|
|
2210102000112020,
|
|
30303303,
|
|
2210102210102000,
|
|
1120102010112000,
|
|
1120120210202020,
|
|
1022102010221010,
|
|
03300000,
|
|
1202100012021000,
|
|
1110111011111000,
|
|
33300000,
|
|
500000000000000000000000000000000008000000000000,
|
|
00022220,
|
|
10050000,
|
|
000000000000000000000000000008000000000000000000,
|
|
1202101012021000,
|
|
1110111011111110,
|
|
33300030,
|
|
7,
|
|
000000000000000000000000000000000008000000000000,
|
|
04004003,
|
|
|
|
#GOGOEND
|
|
|
|
|
|
#END
|
|
|
|
|
|
COURSE:Hard
|
|
LEVEL:6
|
|
BALLOON:15,15
|
|
SCOREINIT:300
|
|
SCOREDIFF:65
|
|
|
|
|
|
#START
|
|
|
|
|
|
1,
|
|
1,
|
|
10101001,
|
|
01100000,
|
|
11,
|
|
7,
|
|
000000000000000000000000000000000008000000000000,
|
|
,
|
|
10102001,
|
|
02010200,
|
|
10102001,
|
|
02010200,
|
|
10102001,
|
|
02010200,
|
|
03003005,
|
|
000000000000000000000000000000000008000000000000,
|
|
10200110,
|
|
10200110,
|
|
10110110,
|
|
10220000,
|
|
10100110,
|
|
10120000,
|
|
10201110,
|
|
10101100,
|
|
10100220,
|
|
10100220,
|
|
10220220,
|
|
10110000,
|
|
10200220,
|
|
10210020,
|
|
10102220,
|
|
10202200,
|
|
11101111,
|
|
01101020,
|
|
22202222,
|
|
02202010,
|
|
11110220,
|
|
11110220,
|
|
1001001010010010,
|
|
30011220,
|
|
500000000000000000000000000000000008000000000000,
|
|
3030001011101000,
|
|
#GOGOSTART
|
|
1000201010111010,
|
|
1000200010111010,
|
|
10201022,
|
|
01210220,
|
|
1020200010222000,
|
|
1000101000112000,
|
|
10101103,
|
|
0000001011101000,
|
|
1000201010111010,
|
|
1000200010111010,
|
|
10201022,
|
|
01210220,
|
|
1110200011102000,
|
|
500000000000000000000000000000000000000008000000,
|
|
3030300000222000,
|
|
10201121,
|
|
01201120,
|
|
10201121,
|
|
01201120,
|
|
10201120,
|
|
1010201000102220,
|
|
03003005,
|
|
000000000000000000000000000000000008000000000000,
|
|
#GOGOEND
|
|
11110220,
|
|
11110220,
|
|
11110220,
|
|
11220000,
|
|
11110220,
|
|
11220000,
|
|
10201120,
|
|
10201120,
|
|
22220110,
|
|
22220110,
|
|
22220110,
|
|
22110000,
|
|
22220110,
|
|
22110000,
|
|
20102210,
|
|
20102210,
|
|
1011101000111010,
|
|
0011100010000000,
|
|
2022202000222020,
|
|
0022200020001000,
|
|
11110220,
|
|
11110220,
|
|
1001001010010010,
|
|
30011220,
|
|
500000000000000000000000000000000008000000000000,
|
|
3030001011101000,
|
|
#GOGOSTART
|
|
1000201010111010,
|
|
1000200010111010,
|
|
10201022,
|
|
01210220,
|
|
1020200010222000,
|
|
1000101000112000,
|
|
10101103,
|
|
0000001011101000,
|
|
1000201010111010,
|
|
1000200010111010,
|
|
10201022,
|
|
01210220,
|
|
1110200011102000,
|
|
500000000000000000000000000000000000000008000000,
|
|
33300000,
|
|
#GOGOEND
|
|
10200120,
|
|
10200120,
|
|
10200120,
|
|
10210000,
|
|
10201120,
|
|
11201120,
|
|
21021021,
|
|
02101110,
|
|
11200120,
|
|
11200120,
|
|
10210110,
|
|
21210000,
|
|
10201121,
|
|
01201120,
|
|
10101212,
|
|
10201212,
|
|
500000000000000000000000000000000000000008000000,
|
|
3,
|
|
3,
|
|
3,
|
|
3,
|
|
33,
|
|
33000303,
|
|
03330330,
|
|
30303303,
|
|
0000001011101000,
|
|
#GOGOSTART
|
|
1000201010111010,
|
|
1000200010111010,
|
|
10201022,
|
|
01210220,
|
|
1110200011102000,
|
|
500000000000000000000000000000000000000008000000,
|
|
3030300000222000,
|
|
500000000000000000000000000000000000000000000008,
|
|
#GOGOEND
|
|
0,
|
|
#GOGOSTART
|
|
1000201010111010,
|
|
1000200010111010,
|
|
10201022,
|
|
01210220,
|
|
1020200010222000,
|
|
1000101000112000,
|
|
10101103,
|
|
0000001011101000,
|
|
1000201010111010,
|
|
1000200010111010,
|
|
10201022,
|
|
01210220,
|
|
1110200011102000,
|
|
500000000000000000000000000000000000000008000000,
|
|
3030300000222000,
|
|
500000000000000000000000000000000000000000000008,
|
|
00022210,
|
|
10050000,
|
|
000000000000000000000008000000000000000000000000,
|
|
1110200011102000,
|
|
500000000000000000000000000000000000000008000000,
|
|
3030300000222000,
|
|
7,
|
|
000000000000000000000000000000000008000000000000,
|
|
03003003,
|
|
,
|
|
#GOGOEND
|
|
,
|
|
,
|
|
#END
|
|
|
|
COURSE:1
|
|
LEVEL:5
|
|
BALLOON:12,12
|
|
SCOREINIT:390
|
|
SCOREDIFF:90
|
|
|
|
#START
|
|
1,
|
|
1,
|
|
11,
|
|
1,
|
|
12,
|
|
7,
|
|
000000000000000000000000000000000008000000000000,
|
|
0,
|
|
00102001,
|
|
02010200,
|
|
00102001,
|
|
02010200,
|
|
00102001,
|
|
02010200,
|
|
03003005,
|
|
000000000000000000000000000000000008000000000000,
|
|
1102,
|
|
1102,
|
|
1102,
|
|
10110000,
|
|
1102,
|
|
10110000,
|
|
1212,
|
|
1210,
|
|
2201,
|
|
2201,
|
|
2201,
|
|
20220000,
|
|
2201,
|
|
20220000,
|
|
2121,
|
|
2120,
|
|
11001000,
|
|
1210,
|
|
11001000,
|
|
1210,
|
|
10110000,
|
|
10110000,
|
|
12,
|
|
1012,
|
|
500000000000000000000000000000000008000000000000,
|
|
33000000,
|
|
#GOGOSTART
|
|
10110020,
|
|
10110000,
|
|
1122,
|
|
1200,
|
|
1122,
|
|
10110000,
|
|
10102003,
|
|
0,
|
|
10110020,
|
|
10110000,
|
|
1122,
|
|
1200,
|
|
1212,
|
|
500000000000000000000000000000000008000000000000,
|
|
33300000,
|
|
500000000000000000000000000000000008000000000000,
|
|
0011,
|
|
40040000,
|
|
0,
|
|
12,
|
|
1120,
|
|
03003005,
|
|
000000000000000000000000000000000008000000000000,
|
|
#GOGOEND
|
|
1102,
|
|
1102,
|
|
1102,
|
|
10110000,
|
|
1102,
|
|
10110000,
|
|
1212,
|
|
1210,
|
|
2201,
|
|
2201,
|
|
2201,
|
|
20220000,
|
|
2201,
|
|
20220000,
|
|
2121,
|
|
2120,
|
|
11001000,
|
|
1210,
|
|
11001000,
|
|
1210,
|
|
10110000,
|
|
10110000,
|
|
12,
|
|
1012,
|
|
500000000000000000000000000000000008000000000000,
|
|
33000000,
|
|
#GOGOSTART
|
|
10110020,
|
|
10110000,
|
|
1122,
|
|
1200,
|
|
1122,
|
|
10110000,
|
|
10102003,
|
|
0,
|
|
10110020,
|
|
10110000,
|
|
1122,
|
|
1200,
|
|
1212,
|
|
500000000000000000000000000000000008000000000000,
|
|
33300000,
|
|
#GOGOEND
|
|
1120,
|
|
1120,
|
|
1122,
|
|
1100,
|
|
1102,
|
|
1102,
|
|
01001001,
|
|
0100,
|
|
1101,
|
|
1011,
|
|
1212,
|
|
1200,
|
|
1212,
|
|
11101000,
|
|
1212,
|
|
11101000,
|
|
500000000000000000000000000000000008000000000000,
|
|
3,
|
|
3,
|
|
3,
|
|
3,
|
|
33,
|
|
33000303,
|
|
00330000,
|
|
30303003,
|
|
0,
|
|
#GOGOSTART
|
|
10110020,
|
|
10110000,
|
|
1122,
|
|
1200,
|
|
1212,
|
|
500000000000000000000000000000000008000000000000,
|
|
33300000,
|
|
10110020,
|
|
#GOGOEND
|
|
2,
|
|
#GOGOSTART
|
|
10110020,
|
|
10110000,
|
|
1122,
|
|
1200,
|
|
1122,
|
|
10110000,
|
|
10102003,
|
|
0,
|
|
10110020,
|
|
10110000,
|
|
1122,
|
|
1200,
|
|
1212,
|
|
500000000000000000000000000000000008000000000000,
|
|
33300000,
|
|
500000000000000000000000000000000008000000000000,
|
|
0011,
|
|
40040000,
|
|
0,
|
|
1212,
|
|
500000000000000000000000000000000008000000000000,
|
|
33300000,
|
|
7,
|
|
000000000000000000000000000000000008000000000000,
|
|
03003003,
|
|
,
|
|
#GOGOEND
|
|
,
|
|
,
|
|
#END
|
|
|
|
COURSE:0
|
|
LEVEL:5
|
|
BALLOON:12,12
|
|
SCOREINIT:290
|
|
SCOREDIFF:63
|
|
|
|
#START
|
|
1,
|
|
1,
|
|
11,
|
|
1,
|
|
11,
|
|
7,
|
|
000000000000000000000000000000000008000000000000,
|
|
0,
|
|
0120,
|
|
11,
|
|
0120,
|
|
11,
|
|
0120,
|
|
11,
|
|
33,
|
|
500000000000000000000000000000000008000000000000,
|
|
11,
|
|
1110,
|
|
11,
|
|
1110,
|
|
11,
|
|
1110,
|
|
11,
|
|
1110,
|
|
22,
|
|
2220,
|
|
22,
|
|
2220,
|
|
22,
|
|
2220,
|
|
22,
|
|
2220,
|
|
11,
|
|
1110,
|
|
22,
|
|
2220,
|
|
1100,
|
|
1100,
|
|
33,
|
|
3011,
|
|
500000000000000000000000000000000008000000000000,
|
|
3,
|
|
#GOGOSTART
|
|
11100000,
|
|
11100000,
|
|
1111,
|
|
1100,
|
|
1111,
|
|
1200,
|
|
10101003,
|
|
0,
|
|
11100000,
|
|
11100000,
|
|
1111,
|
|
1100,
|
|
1111,
|
|
500000000000000000000000000000000008000000000000,
|
|
3,
|
|
500000000000000000000000000000000000000000000008,
|
|
0011,
|
|
15,
|
|
000000000000000000000008000000000000000000000000,
|
|
1110,
|
|
1110,
|
|
33,
|
|
500000000000000000000000000000000008000000000000,
|
|
#GOGOEND
|
|
11,
|
|
1110,
|
|
11,
|
|
1110,
|
|
11,
|
|
1110,
|
|
11,
|
|
1110,
|
|
22,
|
|
2220,
|
|
22,
|
|
2220,
|
|
22,
|
|
2220,
|
|
22,
|
|
2220,
|
|
11,
|
|
1110,
|
|
22,
|
|
2220,
|
|
1100,
|
|
1100,
|
|
33,
|
|
3011,
|
|
500000000000000000000000000000000008000000000000,
|
|
3,
|
|
#GOGOSTART
|
|
11100000,
|
|
11100000,
|
|
1111,
|
|
1100,
|
|
1111,
|
|
1200,
|
|
10101003,
|
|
0,
|
|
11100000,
|
|
11100000,
|
|
1111,
|
|
1100,
|
|
1111,
|
|
500000000000000000000000000000000008000000000000,
|
|
3,
|
|
#GOGOEND
|
|
1110,
|
|
1100,
|
|
2220,
|
|
2200,
|
|
1110,
|
|
1110,
|
|
33,
|
|
33,
|
|
1110,
|
|
2220,
|
|
1212,
|
|
11,
|
|
1212,
|
|
11,
|
|
1210,
|
|
1210,
|
|
500000000000000000000000000000000008000000000000,
|
|
3,
|
|
3,
|
|
3,
|
|
3,
|
|
3,
|
|
3330,
|
|
44,
|
|
30303003,
|
|
0,
|
|
#GOGOSTART
|
|
11100000,
|
|
11100000,
|
|
1111,
|
|
1100,
|
|
1111,
|
|
500000000000000000000000000000000008000000000000,
|
|
3,
|
|
500000000000000000000000000000000008000000000000,
|
|
#GOGOEND
|
|
0,
|
|
#GOGOSTART
|
|
11100000,
|
|
11100000,
|
|
1111,
|
|
1100,
|
|
1111,
|
|
1200,
|
|
10101003,
|
|
0,
|
|
11100000,
|
|
11100000,
|
|
1111,
|
|
1100,
|
|
1111,
|
|
500000000000000000000000000000000008000000000000,
|
|
3,
|
|
500000000000000000000000000000000000000000000008,
|
|
0011,
|
|
15,
|
|
000000000000000000000008000000000000000000000000,
|
|
1111,
|
|
500000000000000000000000000000000008000000000000,
|
|
3,
|
|
9,
|
|
000000000000000000000000000000000008000000000000,
|
|
33,
|
|
3,
|
|
#GOGOEND
|
|
,
|
|
,
|
|
#END
|