466 lines
5.9 KiB
Plaintext
466 lines
5.9 KiB
Plaintext
//TJADB Project
|
|
TITLE:Houkan no Kugetsu
|
|
TITLEJA:崩冠の紅月 破章「嘆きの姫」
|
|
SUBTITLE:--Keigo Hoashi feat. Nami Nakagawa
|
|
BPM:128.2
|
|
WAVE:Houkan no Kugetsu.ogg
|
|
OFFSET:-4.195
|
|
DEMOSTART:28.195
|
|
|
|
COURSE:Oni
|
|
LEVEL:8
|
|
BALLOON:14,20,40
|
|
SCOREINIT:650
|
|
SCOREDIFF:168
|
|
|
|
|
|
#START
|
|
|
|
|
|
#SCROLL 0.5
|
|
1,
|
|
#BPMCHANGE 130.99
|
|
10000001,
|
|
#BPMCHANGE 130.35
|
|
11,
|
|
1,
|
|
#BPMCHANGE 130.62
|
|
1,
|
|
#BPMCHANGE 129.15
|
|
10001001,
|
|
#BPMCHANGE 130.23
|
|
1,
|
|
10000011,
|
|
#BPMCHANGE 129.99
|
|
5,
|
|
000000000000000000000008000000000000000000000000,
|
|
70000800,
|
|
3,
|
|
,
|
|
#BPMCHANGE 130
|
|
#SCROLL 1
|
|
100200100000200000100100000100100000200000101010,
|
|
1010201101102012,
|
|
100000100000200000100100000100100000200000101010,
|
|
1010201101102000,
|
|
100000100000200200100100000100100000200000101010,
|
|
1010112202202012,
|
|
100000100000200200100100000100100000200000101010,
|
|
1010112202020202,
|
|
500000000000000000000000000000000008000000000000,
|
|
200000200000200000200200200200002020200000200200,
|
|
100000100000100000100100000100000100100000101010,
|
|
1010101101011010,
|
|
500000000000000000000000000000000008000000000000,
|
|
200000200000200000200200200200002020200000200200,
|
|
100000100000100000100100000100000100100000101010,
|
|
1010101101011002,
|
|
1210201210102012,
|
|
1210201210102002,
|
|
1210201210102012,
|
|
1210201210102000,
|
|
|
|
#GOGOSTART
|
|
1010221010221210,
|
|
34343434,
|
|
1010221010221210,
|
|
1022102212101220,
|
|
#SCROLL 3.5
|
|
3003,
|
|
4003,
|
|
3004,
|
|
3003,
|
|
#BPMCHANGE 128.6
|
|
400000000111100000000000,
|
|
#BPMCHANGE 130.71
|
|
#SCROLL 1.5
|
|
1022102010201020,
|
|
1022102010203030,
|
|
#BPMCHANGE 130
|
|
3,
|
|
#SCROLL 1.25
|
|
1000100000001111,
|
|
1022,
|
|
1102,
|
|
|
|
#GOGOEND
|
|
3,
|
|
#SCROLL 0.75
|
|
7000000000000008,
|
|
,
|
|
30101101,
|
|
10000111,
|
|
10101101,
|
|
1020202210201022,
|
|
10101101,
|
|
10000111,
|
|
10101101,
|
|
1020202210100000,
|
|
3000100010100011,
|
|
1000000000101011,
|
|
1000101110100011,
|
|
1020202210201120,
|
|
3000100011100011,
|
|
1000002211221122,
|
|
1020202210100022,
|
|
1112221110100000,
|
|
|
|
#GOGOSTART
|
|
#SCROLL 1
|
|
100200100000200000100200101010100000200000100200,
|
|
100000000000300000202020200100000100200000100000,
|
|
100200100000200000100200101010100000200000100200,
|
|
100000000000300000202020200100000100200000100000,
|
|
40300033,
|
|
400000000000300000000000000000101010100100100100,
|
|
7,
|
|
000000000000000000000000000000000000000000000008,
|
|
|
|
#GOGOEND
|
|
|
|
|
|
#END
|
|
|
|
|
|
COURSE:Hard
|
|
LEVEL:6
|
|
BALLOON:10,14,30
|
|
SCOREINIT:640
|
|
SCOREDIFF:168
|
|
|
|
|
|
#START
|
|
|
|
|
|
#SCROLL 0.5
|
|
1,
|
|
#BPMCHANGE 130.99
|
|
10000001,
|
|
#BPMCHANGE 130.35
|
|
11,
|
|
1,
|
|
#BPMCHANGE 130.62
|
|
1,
|
|
#BPMCHANGE 129.15
|
|
10001001,
|
|
#BPMCHANGE 130.23
|
|
1,
|
|
10000011,
|
|
#BPMCHANGE 129.99
|
|
5,
|
|
000000000000000000000008000000000000000000000000,
|
|
70000800,
|
|
3,
|
|
,
|
|
#SCROLL 1
|
|
#BPMCHANGE 130
|
|
11211120,
|
|
11221120,
|
|
11211120,
|
|
11221022,
|
|
11211120,
|
|
11221120,
|
|
11211120,
|
|
11221022,
|
|
500000000000000000000000000000000008000000000000,
|
|
1010222010102220,
|
|
500000000000000000000000000000000000000000000008,
|
|
00001122,
|
|
500000000000000000000000000000000008000000000000,
|
|
2020111020201110,
|
|
500000000000000000000000000000000000000000000008,
|
|
00001120,
|
|
1110200010102000,
|
|
1110200010202000,
|
|
1110200010102000,
|
|
1110200010202000,
|
|
|
|
#GOGOSTART
|
|
1010202011102220,
|
|
34343430,
|
|
1010202011102220,
|
|
34343430,
|
|
#SCROLL 2.5
|
|
3003,
|
|
4003,
|
|
3004,
|
|
3003,
|
|
#BPMCHANGE 128.6
|
|
44,
|
|
#SCROLL 1.5
|
|
#BPMCHANGE 130.71
|
|
12121212,
|
|
1110222011102220,
|
|
#BPMCHANGE 130
|
|
3,
|
|
#SCROLL 1.25
|
|
1000100000001111,
|
|
1022,
|
|
1102,//48
|
|
|
|
#GOGOEND
|
|
3,
|
|
#SCROLL 0.75
|
|
9000000000090008,
|
|
,
|
|
30101101,
|
|
10000111,
|
|
10101101,
|
|
10020222,
|
|
10101101,
|
|
10000111,
|
|
10101101,
|
|
10022202,
|
|
3000100010100011,
|
|
1000000000101011,
|
|
1000100010100011,
|
|
10020222,
|
|
3000100010100011,
|
|
1000001110101010,
|
|
1110100011101011,
|
|
1022202220200000,//67
|
|
#SCROLL 1
|
|
#GOGOSTART
|
|
1010201110222000,
|
|
1010201110111000,
|
|
1010201110222000,
|
|
1010201110111000,
|
|
40300033,
|
|
4000300000111111,
|
|
7,
|
|
000000000000000000000000000000000000000000000008,
|
|
|
|
#GOGOEND
|
|
|
|
|
|
#END
|
|
|
|
|
|
COURSE:Normal
|
|
LEVEL:5
|
|
BALLOON:8,11
|
|
SCOREINIT:690
|
|
SCOREDIFF:208
|
|
|
|
|
|
#START
|
|
|
|
|
|
#SCROLL 0.5
|
|
1,
|
|
#BPMCHANGE 130.99
|
|
1,
|
|
#BPMCHANGE 130.35
|
|
11,
|
|
1,//4
|
|
#BPMCHANGE 130.62
|
|
1,
|
|
#BPMCHANGE 129.15
|
|
11,
|
|
#BPMCHANGE 130.23
|
|
1,
|
|
1,//8
|
|
#BPMCHANGE 129.99
|
|
5,
|
|
000000000000000000000008000000000000000000000000,
|
|
70000800,
|
|
3,
|
|
,//13
|
|
#SCROLL 1
|
|
#BPMCHANGE 130
|
|
11011000,
|
|
11011000,
|
|
11011010,
|
|
11011000,
|
|
22022000,
|
|
22022000,
|
|
11011010,
|
|
11011000,
|
|
500000000000000000000000000000000008000000000000,
|
|
1111,
|
|
500000000000000000000000000000000000000000000008,
|
|
0011,
|
|
500000000000000000000000000000000008000000000000,
|
|
2222,
|
|
500000000000000000000000000000000000000000000008,
|
|
0011,
|
|
10011011,
|
|
10011010,
|
|
20022022,
|
|
20022000,//33
|
|
|
|
#GOGOSTART
|
|
10101110,
|
|
34343430,
|
|
10101110,
|
|
34343430,
|
|
#SCROLL 2.5
|
|
3003,
|
|
3003,
|
|
3004,
|
|
3003,
|
|
#BPMCHANGE 128.6
|
|
43,
|
|
#SCROLL 1.5
|
|
#BPMCHANGE 130.71
|
|
12121212,
|
|
12121212,
|
|
#BPMCHANGE 130
|
|
3,
|
|
#SCROLL 1.25
|
|
1120,
|
|
12,
|
|
1120,//48
|
|
|
|
#GOGOEND
|
|
3,
|
|
#SCROLL 0.75
|
|
9000000000090008,
|
|
,
|
|
30001101,
|
|
10000111,
|
|
10001101,
|
|
10000111,
|
|
10001101,
|
|
10000111,
|
|
10001101,
|
|
10000111,
|
|
10102202,
|
|
20000222,
|
|
20201101,
|
|
10000111,
|
|
10102202,
|
|
20000222,
|
|
20201101,
|
|
1,//67
|
|
|
|
#SCROLL 1
|
|
#GOGOSTART
|
|
30011002,
|
|
2301,
|
|
30011002,
|
|
2301,
|
|
40400033,
|
|
40400333,
|
|
6,
|
|
000000000000000000000000000000000000000008000000,
|
|
|
|
|
|
#END
|
|
|
|
|
|
COURSE:Easy
|
|
LEVEL:5
|
|
BALLOON:5,7
|
|
SCOREINIT:540
|
|
SCOREDIFF:168
|
|
|
|
|
|
#START
|
|
|
|
|
|
#SCROLL 0.5
|
|
1,
|
|
#BPMCHANGE 130.99
|
|
1,
|
|
#BPMCHANGE 130.35
|
|
11,
|
|
1,
|
|
#BPMCHANGE 130.62
|
|
1,
|
|
#BPMCHANGE 129.15
|
|
11,
|
|
#BPMCHANGE 130.23
|
|
1,
|
|
1,
|
|
#BPMCHANGE 129.99
|
|
5,
|
|
000000000000000000000008000000000000000000000000,
|
|
70000800,
|
|
3,
|
|
,
|
|
#SCROLL 1
|
|
#BPMCHANGE 130
|
|
10011000,
|
|
10011000,
|
|
10011010,
|
|
10011000,
|
|
20022000,
|
|
20022000,
|
|
10011010,
|
|
10011000,
|
|
500000000000000000000000000008000000000000000000,
|
|
1111,
|
|
500000000000000000000000000000000000000000000008,
|
|
0011,
|
|
500000000000000000000000000000000008000000000000,
|
|
2222,
|
|
500000000000000000000000000000000000000000000008,
|
|
0011,
|
|
10011010,
|
|
10011000,
|
|
20022020,
|
|
20022000,//33
|
|
|
|
#GOGOSTART
|
|
11,
|
|
3333,
|
|
31,
|
|
3333,
|
|
#SCROLL 2.5
|
|
3003,
|
|
3004,
|
|
4003,
|
|
3004,
|
|
#BPMCHANGE 128.6
|
|
43,
|
|
#SCROLL 1.5
|
|
#BPMCHANGE 130.71
|
|
01010101,
|
|
01010111,
|
|
#BPMCHANGE 130
|
|
1,
|
|
#SCROLL 1.25
|
|
1120,
|
|
12,
|
|
1120,//48
|
|
|
|
#GOGOEND
|
|
3,
|
|
#SCROLL 0.75
|
|
9000000000090008,
|
|
,
|
|
20001101,
|
|
10000111,
|
|
10001101,
|
|
10000111,
|
|
10001101,
|
|
10000111,
|
|
10001101,
|
|
1,
|
|
20001101,
|
|
10000111,
|
|
10001101,
|
|
10000111,
|
|
10001101,
|
|
10000111,
|
|
10101101,
|
|
1,//67
|
|
|
|
#SCROLL 1
|
|
#GOGOSTART
|
|
30011001,
|
|
1301,
|
|
30011001,
|
|
1301,
|
|
4403,
|
|
40400333,
|
|
6,
|
|
000000000000000000000000000000000000000008000000,
|
|
|
|
#GOGOEND
|
|
|
|
|
|
#END
|
|
|