326 lines
3.9 KiB
Plaintext
326 lines
3.9 KiB
Plaintext
//TJADB Project
|
|
TITLE:Inu no Norimono
|
|
TITLEJA:イヌノノリモノ
|
|
SUBTITLE:--Hiroto Sasaki feat. Kaoru Katai
|
|
SUBTITLEJA:feat.カタイカオル
|
|
BPM:180
|
|
WAVE:Inu no Norimono.ogg
|
|
OFFSET:-2.767
|
|
DEMOSTART:50.750
|
|
|
|
COURSE:Oni
|
|
LEVEL:8
|
|
BALLOON:4,4,14,2,2,3,3,4,4,18
|
|
SCOREINIT:880
|
|
SCOREDIFF:228
|
|
|
|
|
|
#START
|
|
|
|
|
|
2222202000000000,
|
|
2222202000000000,
|
|
1122201010202020,
|
|
1222101020202010,
|
|
2221102020201010,
|
|
2211202020101020,
|
|
5,
|
|
,
|
|
000000000000000000000000000000000000000000000008,
|
|
,
|
|
1020200012020000,
|
|
2010100021010000,
|
|
1020200012020020,
|
|
01114040,
|
|
1020200012020000,
|
|
2010100021010000,
|
|
1020200012020020,
|
|
3330,
|
|
1120201012020000,
|
|
2210102021010000,
|
|
1120201012020020,
|
|
01114040,
|
|
1120201012020000,
|
|
2210102021010000,
|
|
1120201012020020,
|
|
30303022,
|
|
10211022,
|
|
70811022,
|
|
1122,
|
|
1010202010222000,
|
|
10111022,
|
|
70821011,
|
|
2211,
|
|
1010202010222022,
|
|
7,
|
|
8,
|
|
|
|
#GOGOSTART
|
|
1120200011020010,
|
|
0011201020202000,
|
|
1210100012010010,
|
|
0012201010102000,
|
|
1120200011020010,
|
|
0011201020202000,
|
|
1210100012010010,
|
|
0012201020101000,
|
|
1120200011020010,
|
|
0011201020202000,
|
|
1210100012010010,
|
|
0012201010102000,
|
|
1120200011020010,
|
|
0011201020202000,
|
|
1210100012010010,
|
|
0012201010002000,
|
|
5,
|
|
000000000000000000000000000000000000000008000000,
|
|
|
|
#GOGOEND
|
|
02212101,
|
|
0000200022122000,
|
|
70811021,
|
|
70811021,
|
|
70811021,
|
|
70811021,
|
|
70811021,
|
|
70811021,
|
|
7,
|
|
80202220,
|
|
|
|
|
|
#END
|
|
|
|
|
|
COURSE:Hard
|
|
LEVEL:6
|
|
BALLOON:3,3,12
|
|
SCOREINIT:770
|
|
SCOREDIFF:218
|
|
|
|
|
|
#START
|
|
|
|
|
|
,
|
|
,
|
|
12011101,
|
|
12011101,
|
|
12011101,
|
|
12011101,
|
|
50000000,
|
|
00000000,
|
|
00000000,
|
|
80000000,
|
|
0020200011020000,
|
|
0010100022010000,
|
|
0020200011020010,
|
|
01114040,
|
|
0020200011020000,
|
|
0010100022010000,
|
|
0020200011020010,
|
|
30303000,
|
|
1020200011020000,
|
|
2010100022010000,//20
|
|
1020200011020010,
|
|
01114040,
|
|
1020200011020000,
|
|
2010100022010000,
|
|
1020200011020010,//25
|
|
30303000,
|
|
10211022,
|
|
70081020,
|
|
10102020,
|
|
1010200010222000,//30
|
|
10111020,
|
|
70081010,
|
|
20201010,
|
|
1010202010222000,
|
|
70000000,//35
|
|
80000000,
|
|
#GOGOSTART
|
|
2020200022020010,
|
|
0011101020202000,
|
|
2020200022020010,
|
|
0011101020202000,//40
|
|
1010100022020010,
|
|
0011101020202000,
|
|
2020200011010020,
|
|
0022202010101000,
|
|
1010200011020010,//45
|
|
0022202010102000,
|
|
1010200011020010,
|
|
0022202010102000,
|
|
1010200011020010,
|
|
0022202010102000,//50
|
|
1020200011020010,
|
|
0022202010002000,
|
|
50000000,
|
|
00000008,
|
|
#GOGOEND
|
|
02011201,//55
|
|
0000200020222000,
|
|
12011021,
|
|
12011021,
|
|
12011021,
|
|
12011022,//60
|
|
12011021,
|
|
12011021,
|
|
12011021,
|
|
10000000,
|
|
00000000,//65
|
|
00000000,
|
|
00000000,
|
|
00000000,
|
|
#END
|
|
|
|
COURSE:Normal
|
|
LEVEL:5
|
|
BALLOON:10,12
|
|
SCOREINIT:850
|
|
|
|
#START
|
|
00000000,
|
|
00000000,
|
|
11011000,
|
|
11011000,
|
|
11011000,//5
|
|
11011000,
|
|
50000000,
|
|
00000000,
|
|
00000000,
|
|
80000000,//10
|
|
02201000,
|
|
01102000,
|
|
02201000,
|
|
01104040,
|
|
02201000,//15
|
|
01102000,
|
|
02201000,
|
|
30303000,
|
|
0010100020020000,
|
|
0020200010010000,//20
|
|
0010100020020000,
|
|
02203030,
|
|
0010100020020000,
|
|
0020200010010000,
|
|
0010100020020000,//25
|
|
40404000,
|
|
10022010,
|
|
50008000,
|
|
10102020,
|
|
11102220,//30
|
|
10022010,
|
|
50008000,
|
|
10102020,
|
|
11102220,
|
|
70000000,//35
|
|
80000000,
|
|
#GOGOSTART
|
|
11101002,
|
|
02201020,
|
|
11101002,
|
|
02201010,//40
|
|
11101002,
|
|
02201010,
|
|
11101002,
|
|
02201010,
|
|
22202001,//45
|
|
01102020,
|
|
22202001,
|
|
01102020,
|
|
22202001,
|
|
01102020,//50
|
|
22202001,
|
|
01102020,
|
|
70000000,
|
|
00000008,
|
|
#GOGOEND
|
|
00101100,//55
|
|
00202200,
|
|
22011020,
|
|
22011000,
|
|
22011020,
|
|
22011000,//60
|
|
11022010,
|
|
11022000,
|
|
11022010,
|
|
10000000,
|
|
00000000,
|
|
00000000,
|
|
00000000,
|
|
00000000,
|
|
#END
|
|
|
|
COURSE:Easy
|
|
LEVEL:3
|
|
BALLOON:3,3,3,3,3,3,10
|
|
SCOREINIT:970
|
|
|
|
#START
|
|
00000000,
|
|
00000000,
|
|
10000000,
|
|
10001000,
|
|
20002000,//5
|
|
20002000,
|
|
50000000,
|
|
00000000,
|
|
00000000,
|
|
80000000,//10
|
|
00101000,
|
|
00101000,
|
|
00101000,
|
|
00103030,
|
|
00101000,//15
|
|
00101000,
|
|
00101000,
|
|
30303000,
|
|
00202000,
|
|
00101000,//20
|
|
00202000,
|
|
00103030,
|
|
00202000,
|
|
00101000,
|
|
00202000,//25
|
|
30303000,
|
|
10001000,
|
|
70008000,
|
|
10101010,
|
|
10002000,//30
|
|
10001000,
|
|
70008000,
|
|
20202020,
|
|
20002000,
|
|
50000000,//35
|
|
80000000,
|
|
#GOGOSTART
|
|
20202005,
|
|
00801000,
|
|
20202005,
|
|
00801000,
|
|
20202007,
|
|
00801000,
|
|
20202007,
|
|
00801000,
|
|
10101007,
|
|
00802000,
|
|
10101007,
|
|
00802000,
|
|
70000000,
|
|
00000008,
|
|
#GOGOEND
|
|
00000000,
|
|
00000000,
|
|
50000800,
|
|
10001000,
|
|
50000800,
|
|
10001000,
|
|
50000800,
|
|
20002000,
|
|
10002000,
|
|
10000000,
|
|
00000000,
|
|
00000000,
|
|
00000000,
|
|
00000000,
|
|
#END |