487 lines
5.8 KiB
Plaintext
487 lines
5.8 KiB
Plaintext
//TJADB Project
|
|
TITLE:Itoshi no Mille-sama
|
|
TITLEJA:いとしのミルさま
|
|
SUBTITLE:--Mitsuro Kaneda feat. Haruko Aoki
|
|
BPM:128
|
|
WAVE:Itoshi no Mille-sama.ogg
|
|
OFFSET:-2.208
|
|
DEMOSTART:16.736
|
|
|
|
COURSE:Oni
|
|
LEVEL:7
|
|
BALLOON:16
|
|
SCOREINIT:480
|
|
SCOREDIFF:118
|
|
|
|
|
|
#START
|
|
|
|
|
|
2000200020002022,
|
|
#MEASURE 3/4
|
|
200220202020,
|
|
#MEASURE 4/4
|
|
2000200020002022,
|
|
#MEASURE 3/4
|
|
202220202020,
|
|
#MEASURE 4/4
|
|
1022100022202022,
|
|
#MEASURE 3/4
|
|
100022200022,
|
|
#MEASURE 6/4
|
|
100020000022202212002210,
|
|
#MEASURE 4/4
|
|
21212121,
|
|
|
|
#GOGOSTART
|
|
1010201011102010,
|
|
0010201011102010,
|
|
0010201011102010,
|
|
1010201000102022,
|
|
1022101011221020,
|
|
11210121,
|
|
1110201011102050,
|
|
000000000000000000000000000000000008000000000000,
|
|
1010201011102010,
|
|
0010201011102010,
|
|
0010201011102010,
|
|
1010201000102022,
|
|
1022101011221020,
|
|
11210121,
|
|
1020112010201120,
|
|
1022102210303000,
|
|
|
|
#GOGOEND
|
|
1000221010002210,
|
|
1000221010002210,
|
|
1000221010002210,
|
|
1022102010221020,
|
|
1022102010221020,
|
|
04441111,
|
|
1000221010002210,
|
|
1000221010002210,
|
|
1010202010002220,
|
|
1010202010001110,
|
|
1020102010112020,
|
|
1020100020002220,
|
|
11221022,
|
|
1110111050000000,
|
|
,
|
|
000000000000000000000008000000200000200000200000,
|
|
#MEASURE 6/4
|
|
022201212221,
|
|
|
|
#GOGOSTART
|
|
#MEASURE 4/4
|
|
1010221011102010,
|
|
1010221011102010,
|
|
1010221010100000,
|
|
2000200022202000,
|
|
2000200022202000,
|
|
2000200022202000,
|
|
2000200022202050,
|
|
000000000000000000000000000000000008000000000000,
|
|
|
|
#GOGOEND
|
|
2000200020202220,
|
|
1000221010002210,
|
|
1000221010002210,
|
|
1000221010002210,
|
|
1022102010221020,
|
|
10210120,
|
|
21011101,
|
|
1000221010102210,
|
|
1010221010102210,
|
|
10012021,
|
|
10120202,
|
|
1020112010201120,
|
|
1020112010201000,
|
|
11211121,
|
|
1110111050000000,
|
|
,
|
|
000000000008000000000000000000400000000000000000,
|
|
#MEASURE 6/4
|
|
000000000111,
|
|
|
|
#GOGOSTART
|
|
#MEASURE 4/4
|
|
11221100,
|
|
33441122,
|
|
11221100,
|
|
1010201011201020,
|
|
11221100,
|
|
33441122,
|
|
11221100,
|
|
7008,
|
|
1010201022101020,
|
|
1010201022201020,
|
|
1010201022101020,
|
|
1022102011201020,
|
|
1010201022101020,
|
|
1010201022201020,
|
|
1010201022101020,
|
|
1022102010111010,
|
|
|
|
#GOGOEND
|
|
4000221010002000,
|
|
|
|
|
|
#END
|
|
|
|
|
|
COURSE:Hard
|
|
LEVEL:5
|
|
BALLOON:10
|
|
SCOREINIT:400
|
|
SCOREDIFF:100
|
|
|
|
|
|
#START
|
|
|
|
|
|
22,
|
|
#MEASURE 3/4
|
|
202022,
|
|
#MEASURE 4/4
|
|
20002022,
|
|
#MEASURE 3/4
|
|
220,
|
|
#MEASURE 4/4
|
|
1011100022202011,
|
|
#MEASURE 3/4
|
|
100022200011,
|
|
#MEASURE 6/4
|
|
100020001022200010002220,
|
|
#MEASURE 4/4
|
|
21212121,//8
|
|
|
|
#GOGOSTART
|
|
11210121,
|
|
11210121,
|
|
11210121,
|
|
11210150,
|
|
000000000000000000000000000000000008000000000000,
|
|
11210121,
|
|
11220225,
|
|
000000000000000000000000000000000008000000000000,
|
|
11210121,
|
|
11210121,
|
|
11210121,
|
|
11210120,
|
|
11210120,
|
|
11210121,
|
|
11220225,
|
|
000000000000000000000000000000000008000000000000,//24
|
|
|
|
#GOGOEND
|
|
10211021,
|
|
10211021,
|
|
10211021,
|
|
11221022,
|
|
10221022,
|
|
14441122,
|
|
10221022,
|
|
10221120,
|
|
11221020,
|
|
11221010,
|
|
22112020,
|
|
22112010,
|
|
11221022,
|
|
11105000,
|
|
,
|
|
000000000000000000000008000000000000000000000000,
|
|
#MEASURE 6/4
|
|
222201112221,//41
|
|
|
|
#GOGOSTART
|
|
#MEASURE 4/4
|
|
11210121,
|
|
11210121,
|
|
11210120,
|
|
2000200022202000,
|
|
2000200022202000,
|
|
2000200022202000,
|
|
2000200022205000,
|
|
000000000000000000000000000000000008000000000000,//49
|
|
|
|
#GOGOEND
|
|
2000200020002220,
|
|
10211021,
|
|
10211021,
|
|
10211021,
|
|
11221022,
|
|
10120210,
|
|
12021122,
|
|
10221022,
|
|
10221110,
|
|
11221000,
|
|
11221000,
|
|
22112000,
|
|
22112000,
|
|
11221022,
|
|
11105000,
|
|
,
|
|
000000000008000000000000000000400000000000000000,
|
|
#MEASURE 6/4
|
|
000000000111,//67
|
|
|
|
#GOGOSTART
|
|
#MEASURE 4/4
|
|
11221100,
|
|
33440000,
|
|
11221100,
|
|
1011201011200000,
|
|
11221100,
|
|
33440000,
|
|
11221100,
|
|
7008,
|
|
1011201010111000,
|
|
1011201010111000,
|
|
1011201010222000,
|
|
2022202020222000,
|
|
1011201010111000,
|
|
1011201010111000,
|
|
1011101020222020,
|
|
500000000000000000000000000000000008000000000000,//83
|
|
|
|
#GOGOEND
|
|
4000111010002000,
|
|
,
|
|
,
|
|
#END
|
|
|
|
COURSE:Normal
|
|
LEVEL:4
|
|
BALLOON:20,20,8
|
|
SCOREINIT:600
|
|
SCOREDIFF:120
|
|
|
|
#START
|
|
22,
|
|
#MEASURE 3/4
|
|
2,
|
|
#MEASURE 4/4
|
|
22,
|
|
#MEASURE 3/4
|
|
220,
|
|
#MEASURE 4/4
|
|
1120,
|
|
#MEASURE 3/4
|
|
1,
|
|
#MEASURE 6/4
|
|
112010,
|
|
#MEASURE 4/4
|
|
1111,//8
|
|
|
|
#GOGOSTART
|
|
10110110,
|
|
10110110,
|
|
20220220,
|
|
20220250,
|
|
000000000000000000000000000000000008000000000000,
|
|
10110110,
|
|
20220250,
|
|
000000000000000000000000000000000008000000000000,
|
|
10110110,
|
|
10110110,
|
|
20220220,
|
|
20220225,
|
|
000000000000000000000000000000000008000000000000,
|
|
10110110,
|
|
10110115,
|
|
000000000000000000000000000000000008000000000000,//24
|
|
|
|
#GOGOEND
|
|
10011001,
|
|
10011005,
|
|
000000000000000000000000000000000008000000000000,
|
|
1122,
|
|
10011001,
|
|
10011001,
|
|
1125,
|
|
000000000000000000000000000000000008000000000000,
|
|
10011000,
|
|
20022000,
|
|
10011010,
|
|
20022020,
|
|
10011010,
|
|
1190,
|
|
,
|
|
98,
|
|
#MEASURE 6/4
|
|
,//41
|
|
|
|
#GOGOSTART
|
|
#MEASURE 4/4
|
|
10110110,
|
|
10110110,
|
|
20220220,
|
|
22,
|
|
22,
|
|
22,
|
|
2225,
|
|
000000000000000000000000000000000008000000000000,//49
|
|
|
|
#GOGOEND
|
|
,
|
|
10011001,
|
|
10011005,
|
|
000000000000000000000000000000000008000000000000,
|
|
1122,
|
|
30030030,
|
|
03000001,
|
|
10011001,
|
|
10011001,
|
|
1120,
|
|
1120,
|
|
1122,
|
|
1110,
|
|
11,
|
|
1190,
|
|
,
|
|
98,
|
|
#MEASURE 6/4
|
|
,//67
|
|
|
|
#GOGOSTART
|
|
#MEASURE 4/4
|
|
10201100,
|
|
33330000,
|
|
10201100,
|
|
10201200,
|
|
10201100,
|
|
33330000,
|
|
10201100,
|
|
7008,
|
|
11101000,
|
|
33330000,
|
|
22202000,
|
|
44004400,
|
|
11101000,
|
|
33330000,
|
|
22202000,
|
|
500000000000000000000000000000000008000000000000,//83
|
|
|
|
#GOGOEND
|
|
4002,
|
|
,
|
|
,
|
|
#END
|
|
|
|
COURSE:Easy
|
|
LEVEL:3
|
|
BALLOON:12,12,8
|
|
SCOREINIT:580
|
|
SCOREDIFF:120
|
|
|
|
#START
|
|
22,
|
|
#MEASURE 3/4
|
|
2,
|
|
#MEASURE 4/4
|
|
22,
|
|
#MEASURE 3/4
|
|
220,
|
|
#MEASURE 4/4
|
|
12,
|
|
#MEASURE 3/4
|
|
1,
|
|
#MEASURE 6/4
|
|
121,
|
|
#MEASURE 4/4
|
|
1110,//8
|
|
|
|
#GOGOSTART
|
|
1100,
|
|
1100,
|
|
2200,
|
|
2205,
|
|
000000000000000000000000000008000000000000000000,
|
|
1100,
|
|
2205,
|
|
000000000000000000000000000008000000000000000000,
|
|
1100,
|
|
1100,
|
|
2200,
|
|
2200,
|
|
500000000000000000000000000008000000000000000000,
|
|
1100,
|
|
1100,
|
|
500000000000000000000000000008000000000000000000,//24
|
|
|
|
#GOGOEND
|
|
11,
|
|
11,
|
|
500000000000000000000000000008000000000000000000,
|
|
1110,
|
|
1110,
|
|
1110,
|
|
11,
|
|
11,
|
|
1110,
|
|
2220,
|
|
1110,
|
|
2220,
|
|
11,
|
|
1190,
|
|
,
|
|
98,
|
|
#MEASURE 6/4
|
|
,//41
|
|
|
|
#GOGOSTART
|
|
#MEASURE 4/4
|
|
1100,
|
|
1100,
|
|
2200,
|
|
2,
|
|
2,
|
|
2,
|
|
2025,
|
|
000000000000000000000000000000000008000000000000,//49
|
|
|
|
#GOGOEND
|
|
,
|
|
1110,
|
|
1110,
|
|
1110,
|
|
1111,
|
|
500000000000000000000000000000000000000008000000,
|
|
,
|
|
11,
|
|
11,
|
|
2220,
|
|
2220,
|
|
1110,
|
|
1110,
|
|
11,
|
|
1190,
|
|
,
|
|
98,
|
|
#MEASURE 6/4
|
|
,//67
|
|
|
|
#GOGOSTART
|
|
#MEASURE 4/4
|
|
1110,
|
|
30330000,
|
|
1110,
|
|
2220,
|
|
1110,
|
|
30330000,
|
|
1110,
|
|
7008,
|
|
1110,
|
|
30330000,
|
|
2220,
|
|
2220,
|
|
1110,
|
|
30330000,
|
|
2220,
|
|
500000000000000000000000000008000000000000000000,//83
|
|
|
|
#GOGOEND
|
|
4,
|
|
,
|
|
,
|
|
#END |