Files
2023-06-15 19:05:10 -05:00

350 lines
3.6 KiB
Plaintext

//TJADB Project
TITLE:Kagami no Kuni no Alice
TITLEJA:鏡の国のアリス
SUBTITLE:--Kashitarou Itou
SUBTITLEJA:伊東歌詞太郎
BPM:160
WAVE:Kagami no Kuni no Alice.ogg
OFFSET:-0.340
DEMOSTART:47.708
COURSE:Oni
LEVEL:6
BALLOON:12,10
SCOREINIT:590
SCOREDIFF:130
#START
,
,
,
00002121,
01202021,
01212217,
0008,
11210122,
10212021,
0011102000201110,
1010201010112010,
0020101022102000,
10212021,
0011102000201110,
1011201000002000,
11210122,
10201022,
1020002010221020,
10221212,
1020221020001000,
10201022,
1020002010221020,
7008,
1001201010112010,
3202,
0000200022102010,
0010200022102010,
0010200021012000,
1000200011102010,
0020002011201020,
500000000000000000000000000000000000000008000000,
33330222,//29
#GOGOSTART
1010200210102010,
0010202210102020,
1010200210102010,
0010202210102020,
1010200210102010,
0010202210102020,
1000200210200010,
0010202210202220,
1010200210112010,
0010202210112020,
1010200210112010,
0010202210112020,
1010200210112010,
0010202210112020,
1000200210200010,
0010202210202220,//45
#GOGOEND
32202022,
32222025,
000000000000000008000000000000200000200000200000,
1010101022221110,//49
#GOGOSTART
3020101120102010,
1011201020102210,
1020101120102010,
1011201020102210,
1020101120112010,
1011201020112010,
1011201020112010,
1011201020112030,
03303023,
03303223,
03303023,
0030300030222030,
03303223,
0030300030221030,
#GOGOEND
#END
COURSE:Hard
LEVEL:5
BALLOON:12,5,8,4,3
SCOREINIT:610
SCOREDIFF:160
#START
00002021,
01101021,
01101127,
,
8,
10201022,
01010222,
10201122,
01110000,
10201022,
01010202,
10270080,
,
10101022,
02020222,
10101202,
02211000,
10101022,
02020221,
7008,
1000100010111000,
3202,
00200021,
02202121,
02202120,
10201022,
02020202,
500000000000000000000000000000000000000008000000,
33330222,//29
#GOGOSTART
11201121,
0011101000200020,
11201121,
0011101000202020,
11221121,
0011101010002020,
7800,
00000222,
11201121,
0011101000202020,
11201121,
0011101000202020,
11221021,
0011101020202050,
000000000000000000000000000008000000000000000000,
00000222,//45
#GOGOEND
11221021,
11221125,
000000000000000000000000000000000000000000000008,
0078,//49
#GOGOSTART
11221122,
1210,
11221122,
1210,
1110202010102020,
1210,
1110200010000000,
1110200010000030,
03303003,
03303023,
03303003,
03303023,
03303003,
03303223,
,
,
,
,//67
#GOGOEND
,
#END
COURSE:Normal
LEVEL:4
BALLOON:7,10,10
#START
00000003,
00303003,
00303006,
000000000000000000000000000000000000000000000008,
,
10001001,
01010000,
10001001,
0100,
10001001,
01010000,
1100,
,
10101011,
01010000,
20202002,
02020000,
10101011,
01010110,
7008,
,
0202,
00200001,
01101001,
01101000,
10101011,
01010109,
0009,
8,//29
#GOGOSTART
10101001,
00110000,
10101001,
00110000,
20202002,
02202020,
4,
,
10101001,
00110000,
20202002,
00220000,
10101001,
01101015,
000000000000000000000000000008000000000000000000,
,//45
#GOGOEND
10201022,
02201019,
0009,
8,//49
#GOGOSTART
10101110,
1210,
10101110,
1210,
10101110,
1210,
1210,
10201003,
00303003,
00303003,
00303003,
00303004,
00404004,
00404003,
,
,
,
,//67
#GOGOEND
,
#END
COURSE:Easy
LEVEL:3
BALLOON:5,8,8
#START
00000003,
00303003,
00303006,
000000000000000000000000000000000000000000000008,
,
10001001,
,
10001001,
,
10001001,
,
20020000,
,
1110,
1110,
1110,
2220,
1110,
2220,
7008,
,
3,
00000003,
00303003,
0330,
11,
10101009,
0009,
8,//29
#GOGOSTART
10001001,
00010000,
10001001,
00010000,
20002002,
0022,
4,
,
10001001,
00010000,
20002002,
00020000,
10101001,
00010005,
000000000000000000000000000008000000000000000000,
,//45
#GOGOEND
1110,
20202009,
0009,
8,//49
#GOGOSTART
11,
1110,
22,
2220,
11,
1110,
2220,
20202003,
00303003,
00303003,
00303003,
00303004,
00404004,
00404003,
,
,
,
,//67
#GOGOEND
,
#END