Files
2023-06-15 19:15:39 -05:00

381 lines
13 KiB
Plaintext

//TJADB Project
TITLE:Kat-chan to Mariko no Ekaki Uta
TITLEJA:かつとマリ子の絵かきうた
SUBTITLE:--Minamo Takahashi feat. Miki Narahashi
BPM:135
WAVE:Kat-chan to Mariko no Ekaki Uta.ogg
OFFSET:-0.022
DEMOSTART:37.355
COURSE:Oni
LEVEL:5
SCOREINIT:900
SCOREDIFF:160
#START
000000000000000000000000000000000000000000000000,
100000000000000000000000100000000000000000000000,
#MEASURE 2/4
100000000000100000000000,
#MEASURE 4/4
100000000000000000000000200000000000000000000000,
100000000000100000000000200000000000000000000000,
100000001010100000001000100000002020200000002000,
100000001000000000001000200000002000100000000000,
100000001010100000001000100000002020200000002000,
100000001000000000001000200000002000100000000000,
100000001010100000001000100000002020200000002000,
100000001000000000001000200000002000100000000000,
100000001000000000001000100000000000000000000000,
100000000000100000000000100000000000000000000000,
000000000000000000000000000000000000000000000000,
#MEASURE 3/4
100000001000100000000000100000000000,
100000001000100000000000100000000000,
100000000000000000001000100000001000,
100000000000200000000000200000000000,
100000001000100000000000100000000000,
100000001000100000000000100000000000,
100000000000000000001000100000001000,
100000002000200000002000200000000000,
#MEASURE 2/4
300000000000300000000000,
#MEASURE 4/4
#GOGOSTART
100000000000100000001000100000002020200000002000,
100000000000100000001000100000002020200000002000,
100000001000200000001000200000001000200000002000,
100000000000100000000000100000002020200000000000,
100000001000100000001000100000002020200000002000,
100000000000100000001000100000002020200000002000,
100000001000200000001000200000001000200000002000,
#MEASURE 2/4
100000000000100000000000,
#MEASURE 4/4
500000000000000000000000000000000000000000000008,
#GOGOEND
000000000000000000000000200000000000000000000000,
100000000000200000000000000000000000000000000000,
100000000000100000000000200000000000000000000000,
100000001010100000001000100000001000200020002000,
100000001010100000001000100000001000200020002000,
100000001010100000001000000000000000000000000000,
100000001010100000001000100000001000200020002000,
100000100000100000100000100000100000100000100000,
100100100100100100100100100000200000100000200000,
100000001010100000001000100000002020200000002000,
100000001010100000001000100000000000000000000000,
000000000000000000000000000000000000000000000000,
#MEASURE 3/4
100000001000100000000000100000000000,
100000001000100000000000100000000000,
100000000000000000001000100000001000,
100000000000200020002000200000000000,
100000001000100000000000100000000000,
100000001000100000000000100000000000,
100000000000000000100000100000000000,
#MEASURE 4/4
100000100000100000100000100000100000100000000000,
#GOGOSTART
100000001000200000001000200000002020200000002000,
100000001000200000001000200000002020200000002000,
100000001000200000002000100000001000200000002000,
100000000000100000000000100000002020200000000000,
100000002000100000002000100000002020200000002000,
100000002000100000002000100000002020200000002000,
100000001000200000002000100000001000200020002000,
100000001000200000002000100000001000200020002000,
100000001000200000002000100000001000200020002000,
100000000000100000000000500000000000000000000000,
000000000000000000000008000000000000000000000000,
#GOGOEND
100000000000100010001000100000000000300000000000,
200000001000100000000000000000000000000000000000,
000030000000000000000000000000000000000000000000,
#END
COURSE:Hard
LEVEL:4
SCOREINIT:700
SCOREDIFF:200
#START
000000000000000000000000000000000000000000000000,
100000000000000000000000100000000000000000000000,
#MEASURE 2/4
100000000000100000000000,
#MEASURE 4/4
100000000000000000000000100000000000000000000000,
100000000000100000000000200000000000000000000000,
100000001000100000000000100000000000200000000000,
100000000000100000000000200000000000000000000000,
100000001000100000000000100000000000200000000000,
100000000000100000000000100000002000200000000000,
100000001000100000000000100000000000200000000000,
100000000000100000000000200000000000000000000000,
100000000000000000001000100000000000000000000000,
100000000000100000000000100000000000000000000000,
000000000000000000000000000000000000000000000000,
#MEASURE 3/4
100000001000100000000000100000000000,
100000001000100000000000100000000000,
100000000000000000001000100000001000,
100000000000000000000000000000000000,
100000001000100000000000100000000000,
100000001000100000000000100000000000,
100000000000000000001000100000001000,
100000002000200000002000200000000000,
#MEASURE 2/4
300000000000300000000000,
#GOGOSTART
#MEASURE 4/4
100000000000100000001000100000002000200000000000,
100000000000100000001000100000002000200000000000,
100000001000100000001000100000001000100000001000,
100000000000100000000000100000000000000000000000,
100000000000100000001000100000002000200000000000,
100000000000100000001000100000002000200000000000,
100000001000100000001000100000001000100000001000,
#MEASURE 2/4
100000000000100000000000,
#MEASURE 4/4
500000000000000000000000000000000000000000008000,
#GOGOEND
000000000000000000000000200000000000000000000000,
100000000000200000000000000000000000000000000000,
100000000000100000000000200000000000000000000000,
100000001000100000000000100000000000200000000000,
100000001000100000001000100000000000000000000000,
100000001000100000001000000000000000000000000000,
100000001000100000001000100000000000000000000000,
100000100000100000100000100000100000100000100000,
100100100100100100100100100000200000100000200000,
100000000000000000000000100000000000000000000000,
100000000000100000000000100000000000000000000000,
000000000000000000000000000000000000000000000000,
#MEASURE 3/4
100000001000100000000000100000000000,
100000001000100000000000100000000000,
100000000000000000001000100000001000,
100000000000000000000000000000000000,
100000001000100000000000100000000000,
100000001000100000000000100000000000,
100000000000200000000000200000000000,
#MEASURE 4/4
100000100000100000100000100000100000100000000000,
#GOGOSTART
100000000000100000001000100000002000200000000000,
100000000000100000001000100000002000200000000000,
100000001000200000001000200000001000200000002000,
100000000000100000000000100000000000000000000000,
100000000000100000001000100000002000200000000000,
100000000000100000001000100000002000200000000000,
100000001000200000001000200000001000200000002000,
100000002000100000002000100000002000100000001000,
200000001000200000001000200000001000200000000000,
300000000000300000000000500000000000000000000000,
000000000000000000008000000000000000000000000000,
#GOGOEND
100000000000200000000000300000000000300000000000,
000000001000100000000000000000000000000000000000,
000030000000000000000000000000000000000000000000,
#END
COURSE:Normal
LEVEL:4
SCOREINIT:460
SCOREDIFF:250
#START
000000000000000000000000000000000000000000000000,
100000000000000000000000100000000000000000000000,
#MEASURE 2/4
100000000000100000000000,
#MEASURE 4/4
100000000000000000000000000000000000000000000000,
000000000000000000000000000000000000000000000000,
100000001000100000000000100000000000000000000000,
100000000000100000000000100000000000000000000000,
100000001000100000000000100000000000000000000000,
100000000000100000000000100000000000000000000000,
100000001000100000000000100000000000000000000000,
100000000000100000000000100000000000000000000000,
100000000000000000001000100000000000000000000000,
100000000000100000000000100000000000000000000000,
000000000000000000000000000000000000000000000000,
#MEASURE 3/4
100000000000100000000000100000000000,
200000000000200000000000200000000000,
100000000000000000001000100000001000,
100000000000000000000000000000000000,
100000000000100000000000100000000000,
200000000000200000000000200000000000,
100000000000000000001000100000000000,
500000000000000000008000000000000000,
#MEASURE 2/4
300000000000300000000000,
#GOGOSTART
#MEASURE 4/4
100000000000100000001000100000000000000000000000,
100000000000100000001000100000000000000000000000,
100000001000100000001000100000001000100000000000,
100000000000100000000000100000000000000000000000,
100000000000100000001000100000000000000000000000,
100000000000100000001000100000000000000000000000,
100000001000100000001000100000001000100000000000,
#MEASURE 2/4
100000000000100000000000,
#MEASURE 4/4
500000000000000000000000000000000000000000008000,
#GOGOEND
000000000000000000000000200000000000000000000000,
100000000000200000000000000000000000000000000000,
100000000000100000000000200000000000000000000000,
100000001000100000000000100000000000000000000000,
100000001000100000001000100000000000000000000000,
100000001000100000000000000000000000000000000000,
100000001000100000001000100000000000000000000000,
100000000000100000000000100000000000100000000000,
100000100000100000100000100000000000000000000000,
100000000000000000000000100000000000000000000000,
100000000000100000000000100000000000000000000000,
000000000000000000000000000000000000000000000000,
#MEASURE 3/4
100000000000100000000000100000000000,
200000000000200000000000200000000000,
100000000000000000001000100000001000,
100000000000000000000000000000000000,
100000000000100000000000100000000000,
200000000000200000000000200000000000,
100000000000000000000000000000000000,
#MEASURE 4/4
100000100000100000100000100000100000100000000000,
#GOGOSTART
100000000000100000001000100000000000000000000000,
100000000000100000001000100000000000000000000000,
100000001000100000001000100000001000100000000000,
100000000000100000000000100000000000000000000000,
100000000000100000001000100000000000000000000000,
100000000000100000001000100000000000000000000000,
100000001000100000001000100000000000300000000000,
200000002000200000002000200000000000400000000000,
100000001000100000001000100000000000300000000000,
100000000000100000000000500000000000000000000000,
000000000000000000008000000000000000000000000000,
#GOGOEND
000000000000000000000000300000000000300000000000,
000000001000100000000000000000000000000000000000,
000030000000000000000000000000000000000000000000,
#END
COURSE:Easy
LEVEL:4
SCOREINIT:670
SCOREDIFF:200
#START
000000000000000000000000000000000000000000000000,
100000000000000000000000100000000000000000000000,
#MEASURE 2/4
100000000000100000000000,
#MEASURE 4/4
100000000000000000000000000000000000000000000000,
000000000000000000000000000000000000000000000000,
100000000000000000000000100000000000000000000000,
100000000000100000000000100000000000000000000000,
100000000000000000000000100000000000000000000000,
100000000000100000000000100000000000000000000000,
100000000000000000000000100000000000000000000000,
100000000000100000000000100000000000000000000000,
100000000000000000000000100000000000000000000000,
100000000000100000000000100000000000000000000000,
000000000000000000000000000000000000000000000000,
#MEASURE 3/4
100000000000100000000000100000000000,
100000000000100000000000100000000000,
100000000000000000000000100000000000,
100000000000000000000000000000000000,
100000000000100000000000100000000000,
100000000000100000000000100000000000,
100000000000000000000000100000000000,
100000000000000000000000000000000000,
#MEASURE 2/4
300000000000300000000000,
#GOGOSTART
#MEASURE 4/4
100000000000100000000000100000000000000000000000,
200000000000200000000000200000000000000000000000,
100000000000100000000000100000000000100000000000,
100000000000100000000000100000000000000000000000,
100000000000100000000000100000000000000000000000,
200000000000200000000000200000000000000000000000,
100000000000100000000000100000000000100000000000,
#MEASURE 2/4
100000000000100000000000,
#MEASURE 4/4
500000000000000000000000000000000000000000800000,
#GOGOEND
000000000000000000000000200000000000000000000000,
100000000000000000000000200000000000000000000000,
100000000000000000000000200000000000000000000000,
100000000000100000000000100000000000000000000000,
100000000000100000000000100000000000000000000000,
100000000000100000000000000000000000000000000000,
100000000000000000000000100000000000000000000000,
100000000000100000000000100000000000100000000000,
100000100000100000000000100000000000000000000000,
100000000000100000000000100000000000000000000000,
100000000000100000000000100000000000000000000000,
000000000000000000000000000000000000000000000000,
#MEASURE 3/4
100000000000100000000000100000000000,
200000000000200000000000200000000000,
100000000000000000000000100000000000,
100000000000000000000000000000000000,
100000000000100000000000100000000000,
200000000000200000000000200000000000,
100000000000000000000000000000000000,
#MEASURE 4/4
500000000000000000000000000000800000000000000000,
#GOGOSTART
100000000000100000000000100000000000000000000000,
200000000000200000000000200000000000000000000000,
100000000000100000000000100000000000100000000000,
100000000000100000000000100000000000000000000000,
100000000000100000000000100000000000000000000000,
200000000000200000000000200000000000000000000000,
100000000000000000000000100000000000100000000000,
200000000000000000000000200000000000200000000000,
100000000000000000000000100000000000100000000000,
300000000000300000000000500000000000000000000000,
000000000000000000800000000000000000000000000000,
#GOGOEND
000000000000000000000000300000000000300000000000,
000000001000100000000000000000000000000000000000,
000030000000000000000000000000000000000000000000,
#END