487 lines
15 KiB
Plaintext
487 lines
15 KiB
Plaintext
//TJADB Project
|
|
TITLE:Kaze no Naka ni Su o Kufu Kotori
|
|
TITLEJA:風のなかに巣をくふ小鳥
|
|
SUBTITLE:--Katsuro Tajima feat. Kaori Nishina
|
|
BPM:64
|
|
WAVE:Kaze no Naka ni Su o Kufu Kotori.ogg
|
|
OFFSET:-3.972
|
|
DEMOSTART:76.232
|
|
|
|
COURSE:Oni
|
|
LEVEL:6
|
|
BALLOON:8,8,8,8,8,8,18
|
|
SCOREINIT:540
|
|
SCOREDIFF:120
|
|
|
|
|
|
#START
|
|
|
|
|
|
100000200100000000100100200100000200100100200000,
|
|
100000000000200000000000100100100000200000100000,
|
|
100000000000200000000000100100100000200000100000,
|
|
100000000000200000000000100100100000200000100000,
|
|
100100100000100100100000100100100000100100100000,
|
|
500000000000000000000000000000000008000000000000,
|
|
100000000000200000100000100100200200200000100000,
|
|
100000000000200000100000100100100100100000100000,
|
|
100100100000200200200000100100200200200000100000,
|
|
#MEASURE 2/4
|
|
1,
|
|
#BPMCHANGE 152
|
|
#MEASURE 3/4
|
|
100000000000400000000000100000002000,
|
|
100000000000100000001000200000001000,
|
|
000000000000400000000000100000002000,
|
|
100000001000200000001000200000001000,
|
|
200000000000100000001000200000002000,
|
|
100000000000200000002000100000001000,
|
|
200000002000100000000000200000002000,
|
|
100000000000200000002000100000001000,
|
|
200000002000100000000000200000002000,
|
|
100000001000200020002000100000001000,
|
|
200000002000100000000000200000002000,
|
|
100000001000200020002000100010001000,
|
|
200000000000000000000000000000002000,
|
|
100000001000000000002000100000000000,
|
|
200010001000200010001000200010001000,
|
|
200000002000100000000000100010001000,
|
|
200000000000100000001000200000002000,
|
|
100000001000200000002000100000001000,
|
|
700000000000000000000000000800000000,
|
|
100000001000200000002000100000001000,
|
|
200000002000200000002000200000002000,
|
|
100000001000200000002000100000001000,
|
|
700000000000000000000000000800000000,
|
|
100000001000100000001000100000001000,
|
|
200000002000100000001000200000002000,
|
|
100000001000100000001000100000001000,
|
|
200000002000100000001000200000002000,
|
|
100000001000100000001000100000001000,
|
|
200000002000200000002000200000002000,
|
|
100000002000200000002000200000002000,
|
|
700000000000000000000000000800000000,
|
|
|
|
#GOGOSTART
|
|
300000000000300000000000300000000000,
|
|
100010001000200000002000100000000000,
|
|
100020002000100020002000100020002000,
|
|
100000001000200000002000100010001000,
|
|
100000001000100000001000100000001000,
|
|
200000002000100000001000200000002000,
|
|
100000001000200000002000100000001000,
|
|
700000000000000000000000000800000000,
|
|
300000000000300000000000300000000000,
|
|
100010001000200000002000100000000000,
|
|
100020002000100020002000100020002000,
|
|
100000001000200000002000100000001000,
|
|
100000000000200000002000100000001000,
|
|
200000000000000000000000000000000000,
|
|
100000000000200000002000100000001000,
|
|
200000000000000000000000200000000000,
|
|
100000002000100000000000100000001000,
|
|
200000002000100000001000200000002000,
|
|
100000001000200000002000100000001000,
|
|
700000000000000000000000000800000000,
|
|
300000000000300000000000300000000000,
|
|
100010001000200000002000100000000000,
|
|
100020002000100020002000100020002000,
|
|
100000001000200000002000100000001000,
|
|
100000001000100000001000100000001000,
|
|
200020002000100000001000200000002000,
|
|
100010001000200000002000100000001000,
|
|
700000000000000000000000000800000000,
|
|
300000000000300000000000300000000000,
|
|
100010001000200000002000100000000000,
|
|
100020002000100020002000100020002000,
|
|
100010001000200020002000100010001000,
|
|
100000000000200000002000100000001000,
|
|
|
|
#GOGOEND
|
|
200000000000000000000000000000000000,
|
|
100000000000200000002000100000001000,
|
|
200000000000000000000000200000002000,
|
|
100000001000100000000000100000001000,
|
|
200000001000100000001000200000001000,
|
|
100000001000200000002000200000002000,
|
|
100000002000200000002000100000002000,
|
|
100000002000100000000000100000001000,
|
|
700000000000000000000000000000000000,
|
|
000000000000000000000000800000000000,
|
|
100000001000200000002000100000001000,
|
|
200000001000200000002000200000002000,
|
|
100000001000200000002000200000002000,
|
|
100000001000200000002000200000002000,
|
|
100000001000200000002000200000002000,
|
|
200000000000100020002000100020002000,
|
|
100000000000200000002000100000000000,
|
|
200000000000100000001000200000002000,
|
|
100000001000200000002000200000000000,
|
|
000000001000000000000000400000000000,
|
|
000000000000000000000000200000001000,
|
|
100000000000000000000000000000000000,
|
|
|
|
|
|
#END
|
|
|
|
|
|
COURSE:Hard
|
|
LEVEL:5
|
|
BALLOON:6,6,6,6,6,18,18
|
|
SCOREINIT:640
|
|
SCOREDIFF:130
|
|
|
|
|
|
#START
|
|
|
|
|
|
100000100100000000100100100000000000100100100000,
|
|
100000000000200000000000100100100000200000000000,
|
|
100000000000200000000000100100100000200000000000,
|
|
100000000000200000100000100100100000100000000000,
|
|
100100100000100000100000100100100000100000100000,
|
|
500000000000000000000000000000000080000000000000,
|
|
100000000000200000100000100100100000200000100000,
|
|
100000000000200000100000100100100000200000100000,
|
|
100100100000200200200000100100100000200200200000,
|
|
#MEASURE 2/4
|
|
100000000000000000000000,
|
|
#MEASURE 3/4
|
|
#BPMCHANGE 152
|
|
100000000000400000000000100000001000,
|
|
100000000000100000001000100000001000,
|
|
000000000000400000000000100000001000,
|
|
100000000000100000001000100000001000,
|
|
100000000000200000000000100000001000,
|
|
100000000000200000000000100000001000,
|
|
100000000000200000000000100000001000,
|
|
100000000000200000001000100000001000,
|
|
100000000000200000000000100000000000,
|
|
100000001000100000000000100000001000,
|
|
100000000000200000000000100000001000,
|
|
100000001000100000000000200000000000,
|
|
100000000000000000000000000000001000,
|
|
100000001000000000001000100000000000,
|
|
200000002000200000002000200000002000,
|
|
200000000000300000000000000000000000,
|
|
100000000000100000002000200000000000,
|
|
100000000000100000002000200000000000,
|
|
100000000000100000002000200000000000,
|
|
100000000000100000001000100000000000,
|
|
100000000000100000001000100000000000,
|
|
100000000000100000001000100000000000,
|
|
700000000000000000008000000000000000,
|
|
000000000000000000000000000000000000,
|
|
100000002000200000000000100000002000,
|
|
200000000000100000002000200000000000,
|
|
100000002000200000000000100000000000,
|
|
100000000000000000000000000000000000,
|
|
100000001000100000001000100000000000,
|
|
100000001000100000001000100000000000,
|
|
700000000000000000008000000000000000,
|
|
#GOGOSTART
|
|
300000000000300000000000300000000000,
|
|
100000001000100000000000100000001000,
|
|
100000000000100000001000100000000000,
|
|
100000001000100000000000000000000000,
|
|
200000002000200000000000200000002000,
|
|
200000000000200000002000200000000000,
|
|
200000002000200000000000200000000000,
|
|
700000000000000000800000000000000000,
|
|
300000000000300000000000300000000000,
|
|
000000000000000000000000000000000000,
|
|
100000001000100000000000200000002000,
|
|
200000000000100000001000100000000000,
|
|
200000002000200000000000100000000000,
|
|
500000000000000000000080000000000000,
|
|
100000000000000000000000000000000000,
|
|
100000000000200000002000200000001000,
|
|
100000000000000000000000200000000000,
|
|
100000001000100000000000000000000000,
|
|
100000000000100000000000100000000000,
|
|
100000001000100000001000100000000000,
|
|
700000000000000000800000000000000000,
|
|
300000000000300000000000300000000000,
|
|
100000001000100000000000100000001000,
|
|
100000000000100000001000100000000000,
|
|
100000001000100000000000000000000000,
|
|
200000002000200000000000200000002000,
|
|
200000000000200000002000200000000000,
|
|
200000002000200000000000200000000000,
|
|
700000000000000000800000000000000000,
|
|
300000000000300000000000300000000000,
|
|
000000000000000000000000000000000000,
|
|
100000001000100000000000200000002000,
|
|
200000000000100000001000100000000000,
|
|
200000002000200000000000100000000000,
|
|
500000000000000000000080000000000000,
|
|
#GOGOEND
|
|
100000000000000000000000000000000000,
|
|
100000000000200000001000100000001000,
|
|
100000000000000000000000200000000000,
|
|
100000001000100000000000000000000000,
|
|
100000001000100000001000100000000000,
|
|
100000001000100000001000100000000000,
|
|
100000002000200000002000200000000000,
|
|
100000002000200000002000200000000000,
|
|
9,
|
|
008,
|
|
000000000000000000000000000000000000,
|
|
000000000000000000000000000000000000,
|
|
100000002000200000002000200000002000,
|
|
100000002000200000000000100000002000,
|
|
200000000000100000002000200000000000,
|
|
400000000000400000000000300000000000,
|
|
300000000000400000000000400000000000,
|
|
000000000000900000000000000000000000,
|
|
,
|
|
8,
|
|
000000000000000000000000200000000000,
|
|
000000000000000000000000000000000000,
|
|
000000000000000000000000200000001000,
|
|
100000000000000000000000000000000000,
|
|
|
|
|
|
#END
|
|
|
|
|
|
COURSE:Normal
|
|
LEVEL:5
|
|
BALLOON:5,5,5,5,15,15
|
|
SCOREINIT:820
|
|
SCOREDIFF:170
|
|
|
|
|
|
#START
|
|
|
|
|
|
100000000100000000100000100000000000100000000000,
|
|
100000000000200000000000100000100000200000000000,
|
|
100000000000200000000000100000100000200000000000,
|
|
100000000000200000000000100000100000100000000000,
|
|
100000000000100000000000100000000000100000100000,
|
|
500000000000000000000000000000000080000000000000,
|
|
100000000000200000000000100000100000200000000000,
|
|
100000000000200000000000100000100000200000000000,
|
|
100000000000200000200000100000000000200000200000,
|
|
#MEASURE 2/4
|
|
100000000000000000000000,
|
|
#MEASURE 3/4
|
|
#BPMCHANGE 151.9999
|
|
100000000000400000000000000000000000,
|
|
100000000000100000000000100000000000,
|
|
100000000000400000000000000000000000,
|
|
000000000000000000000000000000000000,
|
|
100000000000200000000000100000000000,
|
|
100000000000200000000000100000000000,
|
|
100000000000200000000000100000000000,
|
|
100000000000000000000000000000000000,
|
|
100000000000200000000000100000000000,
|
|
100000000000000000000000000000000000,
|
|
100000000000200000000000100000000000,
|
|
100000000000000000000000000000000000,
|
|
300000000000000000000000000000000000,
|
|
000000000000000000000000000000000000,
|
|
100000001000000000100000000000000000,
|
|
200000000000200000000000200000000000,
|
|
200000000000300000000000000000000000,
|
|
100000000000100000000000200000000000,
|
|
100000000000100000000000200000000000,
|
|
100000000000000000000000000000000000,
|
|
100000000000100000000000200000000000,
|
|
100000000000100000000000200000000000,
|
|
100000000000100000000000100000000000,
|
|
500000000000000000000080000000000000,
|
|
000000000000000000000000000000000000,
|
|
100000000000200000000000100000000000,
|
|
200000000000100000000000100000000000,
|
|
100000000000200000000000100000000000,
|
|
200000000000000000000000000000000000,
|
|
100000000000100000000000100000000000,
|
|
100000000000100000000000100000000000,
|
|
700000000000000000800000000000000000,
|
|
#GOGOSTART
|
|
300000000000300000000000300000000000,
|
|
000000000000000000000000000000000000,
|
|
600000000000000000000080000000000000,
|
|
100000000000100000000000100000000000,
|
|
100000000000100000000000000000000000,
|
|
100000000000100000000000200000000000,
|
|
100000000000100000000000200000000000,
|
|
100000000000100000000000200000000000,
|
|
700000000000000000800000000000000000,
|
|
300000000000300000000000300000000000,
|
|
000000000000000000000000000000000000,
|
|
600000000000000000000080000000000000,
|
|
100000000000100000000000100000000000,
|
|
100000000000000000000000100000000000,
|
|
500000000000000000000080000000000000,
|
|
100000000000000000000000000000000000,
|
|
100000000000200000000000100000000000,
|
|
100000000000000000000000000000000000,
|
|
100000000000200000000000100000000000,
|
|
100000000000100000000000200000000000,
|
|
100000000000100000000000200000000000,
|
|
700000000000000000800000000000000000,
|
|
300000000000300000000000300000000000,
|
|
600000000000000000000080000000000000,
|
|
100000000000100000000000100000000000,
|
|
100000000000100000000000000000000000,
|
|
100000000000100000000000200000000000,
|
|
100000000000100000000000200000000000,
|
|
100000000000100000000000200000000000,
|
|
700000000000000000800000000000000000,
|
|
300000000000300000000000300000000000,
|
|
000000000000000000000000000000000000,
|
|
600000000000000000000080000000000000,
|
|
200000000000100000000000200000000000,
|
|
100000000000000000000000100000000000,
|
|
500000000000000000000080000000000000,
|
|
#GOGOEND
|
|
100000000000000000000000000000000000,
|
|
100000000000200000000000100000000000,
|
|
100000000000000000000000000000000000,
|
|
100000000000200000000000100000000000,
|
|
100000000000200000000000100000000000,
|
|
100000000000200000000000000000000000,
|
|
200000000000000000000000200000000000,
|
|
200000000000400000000000000000000000,
|
|
9,
|
|
008,
|
|
000000000000000000000000000000000000,
|
|
000000000000000000000000000000000000,
|
|
100000000000200000000000200000000000,
|
|
100000000000200000000000200000000000,
|
|
300000000000300000000000300000000000,
|
|
300000000000400000000000400000000000,
|
|
090,
|
|
,
|
|
8,
|
|
000000000000000000000000200000000000,
|
|
000000000000000000000000400000000000,
|
|
300000000000000000000000000000000000,
|
|
|
|
|
|
#END
|
|
|
|
|
|
COURSE:Easy
|
|
LEVEL:3
|
|
BALLOON:4,4,4,4,10,10
|
|
SCOREINIT:590
|
|
SCOREDIFF:130
|
|
|
|
|
|
#START
|
|
|
|
|
|
100000000000100000000000100000000000000000000000,
|
|
100000000000000000000000100000000000000000000000,
|
|
100000000000000000000000100000000000000000000000,
|
|
100000000000100000000000100000000000000000000000,
|
|
100000000000100000000000100000000000100000000000,
|
|
500000000000000000000000800000000000000000000000,
|
|
100000000000000000000000100000000000000000000000,
|
|
100000000000100000000000100000000000000000000000,
|
|
100000000000100000000000100000000000100000000000,
|
|
#MEASURE 2/4
|
|
100000000000000000000000,
|
|
000000000000000000000000,
|
|
#MEASURE 3/4
|
|
#BPMCHANGE 152
|
|
300000000000300000000000000000000000,
|
|
000000000000000000000000000000000000,
|
|
300000000000300000000000000000000000,
|
|
000000000000000000000000000000000000,
|
|
100000000000100000000000000000000000,
|
|
100000000000100000000000000000000000,
|
|
100000000000100000000000100000000000,
|
|
100000000000000000000000000000000000,
|
|
100000000000100000000000000000000000,
|
|
100000000000100000000000000000000000,
|
|
100000000000100000000000000000000000,
|
|
100000000000100000000000000000000000,
|
|
300000000000000000000000000000000000,
|
|
000000000000000000000000000000000000,
|
|
100000000000100000000000100000000000,
|
|
100000000000000000000000000000000000,
|
|
100000000000100000000000000000000000,
|
|
100000000000100000000000100000000000,
|
|
500000000000800000000000000000000000,
|
|
100000000000100000000000000000000000,
|
|
100000000000100000000000000000000000,
|
|
100000000000100000000000100000000000,
|
|
500000000000800000000000000000000000,
|
|
000000000000000000000000000000000000,
|
|
100000000000100000000000100000000000,
|
|
100000000000000000000000000000000000,
|
|
100000000000100000000000100000000000,
|
|
100000000000000000000000000000000000,
|
|
100000000000000000000000100000000000,
|
|
000000000000100000000000000000000000,
|
|
700000000000000000800000000000000000,
|
|
#GOGOSTART
|
|
300000000000300000000000000000000000,
|
|
000000000000000000000000000000000000,
|
|
600000000000000008000000000000000000,
|
|
100000000000100000000000000000000000,
|
|
100000000000100000000000000000000000,
|
|
200000000000200000000000000000000000,
|
|
200000000000200000000000000000000000,
|
|
200000000000200000000000200000000000,
|
|
700000000000000000800000000000000000,
|
|
300000000000300000000000000000000000,
|
|
000000000000000000000000000000000000,
|
|
600000000000000008000000000000000000,
|
|
100000000000100000000000000000000000,
|
|
100000000000100000000000100000000000,
|
|
500000000000800000000000000000000000,
|
|
100000000000000000000000000000000000,
|
|
100000000000100000000000000000000000,
|
|
100000000000000000000000000000000000,
|
|
100000000000100000000000000000000000,
|
|
100000000000000000000000100000000000,
|
|
100000000000100000000000100000000000,
|
|
700000000000000000800000000000000000,
|
|
300000000000300000000000000000000000,
|
|
600000000000000008000000000000000000,
|
|
100000000000100000000000000000000000,
|
|
100000000000100000000000000000000000,
|
|
200000000000200000000000000000000000,
|
|
200000000000200000000000000000000000,
|
|
200000000000200000000000200000000000,
|
|
700000000000000000800000000000000000,
|
|
300000000000300000000000000000000000,
|
|
000000000000000000000000000000000000,
|
|
600000000000000008000000000000000000,
|
|
100000000000100000000000000000000000,
|
|
100000000000100000000000100000000000,
|
|
500000000000800000000000000000000000,
|
|
#GOGOEND
|
|
100000000000000000000000000000000000,
|
|
100000000000100000000000100000000000,
|
|
100000000000000000000000000000000000,
|
|
100000000000100000000000000000000000,
|
|
100000000000000000000000100000000000,
|
|
000000000000100000000000000000000000,
|
|
100000000000000000000000100000000000,
|
|
100000000000300000000000000000000000,
|
|
9,
|
|
008,
|
|
,
|
|
,
|
|
100000000000100000000000000000000000,
|
|
100000000000100000000000000000000000,
|
|
300000000000300000000000300000000000,
|
|
300000000000000000000000400000000000,
|
|
090,
|
|
,
|
|
8,
|
|
000000000000000000000000200000000000,
|
|
000000000000000000000000300000000000,
|
|
300000000000000000000000000000000000,
|
|
|
|
|
|
#END
|
|
|