Files
2023-06-15 19:15:39 -05:00

227 lines
6.6 KiB
Plaintext

//TJADB Project
TITLE:Kidaruma 2000
TITLEJA:黄ダルマ2000
SUBTITLE:--Linda AI-CUE
BPM:154
WAVE:Kidaruma 2000.ogg
OFFSET:-1.553
DEMOSTART:0.008
COURSE:Oni
LEVEL:1
SCOREINIT:1980
SCOREDIFF:1120
#START
,
500008000000100000100000100000500008000000000000,
100000500008000000000000100000100000500008000000,
100000100000000000100000100000000000500008000000,
100000500008000000100000100000000000100000500008,
000000500008000000100000000000500008000000100000,
500008000000100000500008000000000000500008000000,
100000100000100000500008000000000000100000500008,
000000000000100000100000500008000000100000100000,
000000100000100000000000100000500008000000000000,
500008000000100000500008000000100000500008000000,
000000100000100000000000100000500008000000100000,
100000000000100000500008000000500008000000000000,
500008000000100000100000100000500008000000000000,
100000500008000000000000100000100000500008000000,
100000100000000000100000100000000000500008000000,
100000500008000000500008000000000000100000100000,
000000100000500008000000500008000000100000500008,
000000000000100000500008000000500008000000500008,
000000100000000000100000500008000000100000500008,
000000100000000000500008000000100000100000100000,
500008000000000000100000500008000000000000100000,
100000500008000000100000100000000000100000100000,
000000100000500008000000500008000000000000100000,
500008000000100000100000100000000000100000500008,
000000500008000000000000500008000000100000100000,
100000500008000000000000100000500008000000000000,
100000100000500008000000100000100000000000100000,
100000000000100000100000500008000000100000100000,
000000500008000000500008000000500008000000500008,
000000000000100000500008000000500008000000000000,
,
,
#GOGOSTART
1110000030000000,
1110000030000000,
1110201110201120,
203003
#GOGOEND
00,
#END
COURSE:Hard
LEVEL:1
BALLOON:6,6
SCOREINIT:1490
SCOREDIFF:730
#START
,
500008000000100000100000100000500008000000000000,
100000500008000000000000100000100000500008000000,
100000100000000000100000100000000000500008000000,
500008000000100000500008000000100000000000100000,
500008000000500008000000000000100000100000500008,
000000100000000000500008000000500008000000000000,
100000100000500008000000000000500008000000100000,
100000100000500008000000000000100000500008000000,
000000100000100000500008000000100000100000000000,
100000100000000000500008000000100000000000100000,
100000000000100000500008000000000000500008000000,
500008000000100000500008000000100000000000100000,
100000000000100000500008000000100000500008000000,
100000000000500008000000100000100000100000500008,
000000000000100000500008000000000000100000100000,
500008000000100000100000000000100000100000000000,
100000500008000000100000100000000000100000500008,
000000100000500008000000100000000000100000100000,
500008000000100000100000000000100000100000100000,
500008000000000000500008000000100000100000100000,
500008000000000000100000500008000000000000100000,
100000500008000000100000100000000000100000100000,
000000500008000000100000100000100000000000100000,
100000500008000000500008000000100000000000500008,
000000100000100000100000000000100000100000500008,
000000500008000000100000000000500008000000100000,
100000100000500008000000000000100000500008000000,
000000100000100000500008000000100000100000000000,
100000100000000000100000500008000000100000100000,
000000100000100000000000100000500008000000000000,
,
,
#GOGOSTART
70083020,
70083000,
1020201020201022,
203003
#GOGOEND
00,
#END
COURSE:Normal
LEVEL:1
SCOREINIT:1230
SCOREDIFF:750
#START
,
500008000000100000100000100000500008000000000000,
100000500008000000000000100000100000500008000000,
100000100000000000100000100000000000500008000000,
500008000000100000500008000000500008000000000000,
500008000000100000000000100000500008000000500008,
000000100000000000100000100000100000500008000000,
000000100000100000000000500008000000100000100000,
100000500008000000000000100000500008000000000000,
100000100000500008000000100000100000000000100000,
100000000000500008000000100000100000100000000000,
100000100000500008000000500008000000100000000000,
100000500008000000100000500008000000100000000000,
100000100000500008000000100000000000500008000000,
100000100000100000500008000000000000100000500008,
000000000000100000100000500008000000100000100000,
000000100000100000000000500008000000100000500008,
000000100000100000000000100000500008000000500008,
000000100000000000100000100000100000500008000000,
000000500008000000100000100000100000500008000000,
000000100000500008000000000000100000100000500008,
01101101,
100000500008000000100000100000000000100000100000,
000000500008000000500008000000100000000000500008,
000000100000500008000000500008000000100000000000,
500008000000100000100000100000500008000000000000,
100000500008000000000000100000100000500008000000,
100000100000000000100000100000000000500008000000,
500008000000100000100000500008000000000000100000,
100000000000100000500008000000500008000000100000,
500008000000000000500008000000000000000000000000,
,
,
#GOGOSTART
1032,
1032,
500000000000000000000000000000000000008000000000,
003003
#GOGOEND
00,
#END
COURSE:Easy
LEVEL:1
SCOREINIT:1080
SCOREDIFF:785
#START
,
500008000000100000100000100000500008000000000000,
100000500008000000000000100000100000500008000000,
11011011,
500008000000100000100000000000100000500008000000,
000000500008000000100000500008000000500008000000,
500008000000000000500008000000100000100000100000,
000000100000100000000000100000500008000000500008,
000000000000500008000000100000100000100000000000,
500008000000500008000000100000000000500008000000,
100000100000500008000000000000500008000000100000,
500008000000500008000000100000000000100000100000,
500008000000100000000000500008000000100000100000,
100000000000500008000000100000100000100000000000,
500008000000500008000000500008000000100000500008,
000000000000100000100000000000100000500008000000,
500008000000500008000000100000000000100000500008,
000000100000000000100000500008000000000000100000,
100000500008000000100000100000000000100000500008,
000000100000100000100000000000500008000000100000,
100000500008000000100000000000100000100000500008,
000000000000100000100000500008000000500008000000,
000000100000500008000000100000500008000000500008,
000000000000100000100000000000500008000000500008,
000000500008000000100000500008000000000000500008,
000000500008000000000000500008000000500008000000,
100000500008000000500008000000000000500008000000,
500008000000500008000000000000500008000000100000,
100000100000000000100000500008000000500008000000,
000000500008000000100000100000100000000000100000,
100000000000100000500008000000100000100000000000,
,
,
#GOGOSTART
13,
13,
500000000000000000000000000000000000000000000008,
003003
#GOGOEND
00,
#END