Files
2023-06-15 19:05:10 -05:00

539 lines
17 KiB
Plaintext

//TJADB Project
TITLE:Kyou no Gohan wa Taiko-zakari!
TITLEJA:今日のご飯は太鼓盛り!
SUBTITLE:--Yuri Misumi feat. Miki Narahashi
BPM:149.25
WAVE:Kyou no Gohan wa Taiko-zakari!.ogg
OFFSET:-1.634
DEMOSTART:69.354
COURSE:Oni
LEVEL:4
BALLOON:15
#START
000000000000000000000000000000000000000000000000,
#BPMCHANGE 155.85
000000002000200000002000200000002000200000000000,
#BPMCHANGE 150
300000000000300000000000300000000000000000000000,
#BPMCHANGE 153.72
000000002000200000002000200000000000200000000000,
#BPMCHANGE 152.48
100000001000100000001000000000000000000000000000,
#BPMCHANGE 153.35
000000002000200000002000200000000000200000000000,
#BPMCHANGE 150.6
100000001000100000001000000000000000000000000000,
#MEASURE 3/4
#BPMCHANGE 151
100000001000000000001000100000000000,
#BPMCHANGE 152.59
100000001000000000001000100000000000,
#MEASURE 2/4
#BPMCHANGE 149.73
200000000000200000000000,
#MEASURE 4/4
#BPMCHANGE 152.22
100000000000200000001000100000000000200000001000,
#BPMCHANGE 152.1
100000001000100000001000100000000000200000000000,
#BPMCHANGE 153.53
100000000000200000001000100000000000200000001000,
#BPMCHANGE 149.54
100000001000100000001000000000000000000000000000,
#BPMCHANGE 155.34
100000000000200000001000100000000000200000001000,
#BPMCHANGE 150.47
100000001000100000001000100000002020200000002000,
#BPMCHANGE 152
100000000000200000001000100000000000200000001000,
#BPMCHANGE 150.8
100000001000100000001000000000000000000000000000,
#BPMCHANGE 152.43
100000000000100000000000100000000000100000000000,
#BPMCHANGE 151.98
100000000000100000000000100000000000100000000000,
#BPMCHANGE 152.38
100000000000100000000000100000000000100000000000,
#BPMCHANGE 151.25
100000002000100000002000100000002000100000002000,
#BPMCHANGE 152.51
100000000000100000000000100000000000100000000000,
#BPMCHANGE 151.99
100000000000100000000000100000000000100000000000,
#BPMCHANGE 152.96
300000000000400000000000300000000000400000000000,
#BPMCHANGE 150.99
900000000000000000000000000000000000000000000000,
#BPMCHANGE 153.35
000800000000000000000000000000000000000000000000,
#BPMCHANGE 150.24
100000000000200000001000100000000000200000001000,
#BPMCHANGE 152.41
100000001000100000001000100000000000200000000000,
#BPMCHANGE 151.5
100000000000200000001000100000000000200000001000,
#BPMCHANGE 152.46
100000001000100000001000000000000000000000000000,
#BPMCHANGE 151.93
100000000000200000001000100000000000200000001000,
#BPMCHANGE 152.22
100000002000200000001000100000002020200000002000,
#BPMCHANGE 152.32
100000000000200000001000100000000000200000001000,
#BPMCHANGE 152.14
100000002000200000001000000000002020200000000000,
#BPMCHANGE 151.74
100000001000100000001000100000001000100000000000,
#BPMCHANGE 152.02
100000001000100000001000100000002000200000000000,
#BPMCHANGE 146.14
100000001000100000001000100000001000100000001000,
#BPMCHANGE 151.11
100000001000100000001000100000002000200000000000,
#BPMCHANGE 108.97
100000000000000000000000100000000000000000000000,
#BPMCHANGE 104.39
100000000000000000000000100000000000000000000000,
#MEASURE 3/4
#BPMCHANGE 151.15
100000001000000000001000100000000000,
#BPMCHANGE 153.44
100000001000000000001000100000000000,
#MEASURE 2/4
#BPMCHANGE 149
200020002000200000000000,
#GOGOSTART
#MEASURE 4/4
#BPMCHANGE 151.99
300000000000300000000000300000000000000000000000,
#BPMCHANGE 152
100000001000100000001000100000002020200000002000,
#BPMCHANGE 152.43
100000001000200000000000100000001000200000000000,
#BPMCHANGE 151.87
100000001000100000001000100000001000100000000000,
#BPMCHANGE 153
100000000000200000001000100000002000200000000000,
#BPMCHANGE 151.05
100000000000200000001000100000002000200000000000,
#BPMCHANGE 151.98
300000000000000000000000300000000000000000000000,
#BPMCHANGE 155.52
500000000000000000000000000000000000000000000008,
#GOGOEND
#BPMCHANGE 148.59
000000000000000000000000000000000000000000000000,
#GOGOSTART
#BPMCHANGE 153
100000000000100000000000100100200200100000200000,
#BPMCHANGE 152.74
100000000000100000000000100100200200200000000000,
#BPMCHANGE 151.1
100000100000100000000000100100200200100000200000,
#BPMCHANGE 152.02
100000100000100000000000100100200200200000000000,
#BPMCHANGE 151.57
100000100100100000000000100100200200100000200000,
#BPMCHANGE 152.79
100000100100100000000000100100200200200000000000,
#BPMCHANGE 151.74
100000100100100000200000100100200200100000200000,
#BPMCHANGE 151.82
100000100100100000200000100100200200200000000000,
#BPMCHANGE 152.42
500000000000000000000000000000000000000000000008,
#GOGOEND
#BPMCHANGE 150.59
000000000000000000000000000000000000000000000000,
#MEASURE 3/4
#BPMCHANGE 152.6
100000001000000000001000100000000000,
#BPMCHANGE 153.45
100000001000000000001000100000000000,
#MEASURE 2/4
#BPMCHANGE 149.01
200000000000200000000000,
#MEASURE 4/4
#BPMCHANGE 150.42
100000000000000000002000200000000000000000000000,
#BPMCHANGE 153
100000000000200000002000200000000000000000000000,
#BPMCHANGE 153.64
100000000000000000002000200000000000000000000000,
#BPMCHANGE 151.24
100000002000200000002000000000000000000000000000,
#BPMCHANGE 150.25
100000000000200000001000100000000000200000001000,
#BPMCHANGE 152.22
100000002000200000001000100000002020200000002000,
#BPMCHANGE 152.37
100000000000200000001000100000000000200000001000,
#BPMCHANGE 152.38
100000002000200000001000000000000000000000000000,
#BPMCHANGE 151.65
100000001000100000001000100000000000200000000000,
#MEASURE 3/4
#BPMCHANGE 152.23
100000001000000000001000100000000000,
#MEASURE 4/4
#BPMCHANGE 154.44
300000000000000000000000000000000000000000000000,
#END
COURSE:Hard
LEVEL:4
BALLOON:12
SCOREINIT:680
SCOREDIFF:150
#START
#BPMCHANGE 153
000000000000000000000000000000000000000000000000,
000000000000200000000000200000000000200000000000,
300000000000300000000000300000000000000000000000,
000000000000200000000000200000000000000000000000,
100000001000100000001000000000000000000000000000,
000000000000200000000000200000000000000000000000,
100000001000100000001000000000000000000000000000,
#MEASURE 3/4
100000001000000000001000100000000000,
100000001000000000001000100000000000,
#MEASURE 2/4
200000000000200000000000,
#MEASURE 4/4
100000000000000000001000100000000000000000000000,
100000001000100000001000100000000000000000001000,
100000000000000000001000100000000000000000000000,
100000001000100000001000100000000000000000001000,
100000000000000000001000100000000000200000000000,
100000001000100000001000100000000000000000001000,
100000000000000000001000100000000000200000000000,
100000001000100000001000100000000000000000000000,
100000000000100000000000100000000000100000000000,
100000000000100000000000100000000000100000000000,
100000000000100000000000100000000000100000000000,
100000000000100000000000100000000000000000000000,
100000000000100000000000100000000000100000000000,
100000000000100000000000100000000000000000000000,
300000000000000000000000300000000000000000000000,
900000000000000000000000000000000000000000000000,
800000000000000000000000000000000000000000000000,
100000000000200000001000100000000000000000000000,
100000001000100000001000100000000000000000001000,
100000000000200000001000100000000000000000000000,
100000001000100000001000100000000000000000001000,
100000000000200000001000100000000000200000000000,
100000002000200000001000100000000000000000001000,
100000000000200000001000100000000000200000000000,
100000002000200000001000100000000000000000000000,
100000001000100000001000100000000000100000000000,
100000001000100000001000100000000000000000000000,
100000001000100000001000100000000000100000000000,
100000001000100000001000000000000000000000000000,
#BPMCHANGE 109
100000000000000000000000100000000000000000000000,
100000000000000000000000
#BPMCHANGE 99
#SCROLL 1.1
100000000000000000000000,
#BPMCHANGE 153
#MEASURE 3/4
100000001000000000001000100000000000,
100000001000000000001000100000000000,
#MEASURE 2/4
200000000000200000000000,
#MEASURE 4/4
#GOGOSTART
300000000000300000000000300000000000000000000000,
100000001000100000001000100000000000000000000000,
100000000000200000000000100000000000200000000000,
100000001000100000000000100000001000100000000000,
100000000000200000001000100000000000000000000000,
100000000000200000001000100000000000000000000000,
300000000000000000000000300000000000000000000000,
500000000000000000000000000000000000000000008000,
#GOGOEND
000000000000000000000000000000000000000000000000,
#GOGOSTART
100000000000100000000000100000200000200000000000,
100000000000100000000000100000200000200000000000,
100000100000100000000000100000200000200000000000,
100000100000100000000000100000200000200000000000,
100000100000100000000000100000200200200000000000,
100000100000100000000000100000200200200000000000,
100000100100100000000000100000200200200000200000,
100000100100100000000000100000200200200000200000,
500000000000000000000000000000000000000000000800,
#GOGOEND
000000000000000000000000000000000000000000000000,
#MEASURE 3/4
100000001000000000001000100000000000,
100000001000000000001000100000000000,
#MEASURE 2/4
200000000000200000000000,
#MEASURE 4/4
100000000000000000000000200000000000000000000000,
100000000000200000000000200000000000000000000000,
100000000000000000000000200000000000000000000000,
100000000000200000000000200000000000000000000000,
100000000000200000001000100000000000000000000000,
100000002000200000001000100000000000000000000000,
100000000000200000001000100000000000000000000000,
100000002000200000001000100000000000000000000000,
100000001000100000000000100000000000000000000000,
#MEASURE 3/4
100000001000100000000000100000000000,
#MEASURE 4/4
300000000000000000000000000000000000000000000000,
#END
COURSE:Normal
LEVEL:3
BALLOON:10
SCOREINIT:670
SCOREDIFF:180
#START
#BPMCHANGE 153
000000000000000000000000000000000000000000000000,
200000000000200000000000200000000000000000000000,
300000000000300000000000300000000000000000000000,
000000000000200000000000200000000000000000000000,
100000000000100000001000000000000000000000000000,
000000000000200000000000200000000000000000000000,
100000000000100000001000000000000000000000000000,
#MEASURE 3/4
100000000000000000001000100000000000,
100000000000000000001000100000000000,
#MEASURE 2/4
200000000000000000000000,
#MEASURE 4/4
100000000000000000001000100000000000000000000000,
100000000000100000000000100000000000000000001000,
100000000000000000001000100000000000000000000000,
100000000000100000000000100000000000000000000000,
100000000000000000001000100000000000000000000000,
100000000000200000000000200000000000000000001000,
100000000000000000001000100000000000000000000000,
100000000000200000000000200000000000000000000000,
100000000000100000000000100000000000100000000000,
100000000000100000000000100000000000000000000000,
100000000000100000000000100000000000100000000000,
100000000000100000000000100000000000000000000000,
100000000000100000000000100000000000100000000000,
100000000000100000000000100000000000000000000000,
300000000000000000000000300000000000000000000000,
700000000000000000000000000000000000000000000000,
800000000000000000000000000000000000000000000000,
100000000000000000002000200000000000000000000000,
100000000000100000000000100000000000000000001000,
100000000000000000002000200000000000000000000000,
100000000000100000000000100000000000000000000000,
100000000000000000002000200000000000000000000000,
100000000000200000000000200000000000000000001000,
100000000000000000002000200000000000000000000000,
100000000000200000000000200000000000000000000000,
100000000000100000001000100000000000000000000000,
100000000000100000001000100000000000000000000000,
100000000000100000001000100000000000000000000000,
100000000000100000001000100000000000000000000000,
#BPMCHANGE 109
100000000000000000000000100000000000000000000000,
100000000000000000000000
#BPMCHANGE 99
#SCROLL 1.1
100000000000000000000000,
#SCROLL 1
#BPMCHANGE 153
#MEASURE 3/4
100000000000000000001000100000000000,
100000000000000000001000100000000000,
#MEASURE 2/4
200000000000000000000000,
#GOGOSTART
#MEASURE 4/4
300000000000300000000000300000000000000000000000,
100000000000100000000000100000000000000000000000,
100000000000200000000000100000000000200000000000,
300000000000400000000000300000000000400000000000,
100000000000000000001000100000000000000000000000,
100000000000000000001000100000000000000000000000,
300000000000000000000000300000000000000000000000,
500000000000000000000000000000000000000000800000,
#GOGOEND
000000000000000000000000000000000000000000000000,
#GOGOSTART
100000000000100000100000100000000000000000000000,
100000000000100000100000100000000000200000000000,
100000000000100000100000100000000000000000000000,
100000000000100000100000100000000000200000000000,
100000000000100000100000100000000000000000000000,
100000000000100000100000100000000000200000000000,
100000000000100000100000100000000000000000000000,
100000000000100000100000100000000000200000000000,
500000000000000000000000000000000000000000008000,
#GOGOEND
000000000000000000000000000000000000000000000000,
#MEASURE 3/4
100000000000000000001000100000000000,
100000000000000000001000100000000000,
#MEASURE 2/4
200000000000000000000000,
#MEASURE 4/4
100000000000000000000000200000000000000000000000,
100000000000200000000000200000000000000000000000,
100000000000000000000000200000000000000000000000,
100000000000200000000000200000000000000000000000,
100000000000000000001000100000000000000000000000,
100000000000100000001000100000000000000000001000,
100000000000000000001000100000000000000000000000,
100000000000100000001000100000000000000000000000,
100000000000100000000000100000000000000000000000,
#MEASURE 3/4
100000000000000000000000100000000000,
#MEASURE 4/4
300000000000000000000000000000000000000000000000,
#END
COURSE:Easy
LEVEL:4
BALLOON:8
SCOREINIT:760
SCOREDIFF:240
#START
#BPMCHANGE 153
000000000000000000000000000000000000000000000000,
200000000000000000000000200000000000000000000000,
100000000000100000000000100000000000000000000000,
000000000000000000000000200000000000000000000000,
100000000000100000000000000000000000000000000000,
000000000000000000000000200000000000000000000000,
100000000000100000000000000000000000000000000000,
#MEASURE 3/4
100000000000000000000000000000000000,
100000000000000000000000000000000000,
#MEASURE 2/4
200000000000000000000000,
000000000000000000000000,
#MEASURE 4/4
100000000000000000000000100000000000000000000000,
100000000000100000000000100000000000000000000000,
100000000000000000000000100000000000000000000000,
100000000000100000000000100000000000000000000000,
100000000000000000000000100000000000000000000000,
200000000000200000000000200000000000000000000000,
100000000000000000000000100000000000000000000000,
200000000000200000000000200000000000000000000000,
100000000000100000000000100000000000100000000000,
100000000000000000000000100000000000000000000000,
100000000000100000000000100000000000100000000000,
100000000000000000000000100000000000000000000000,
100000000000100000000000100000000000100000000000,
100000000000000000000000100000000000000000000000,
300000000000000000000000300000000000000000000000,
700000000000000000000000000000000000000000000000,
800000000000000000000000000000000000000000000000,
100000000000000000000000200000000000000000000000,
100000000000100000000000100000000000000000000000,
100000000000000000000000200000000000000000000000,
100000000000100000000000100000000000000000000000,
100000000000000000000000200000000000000000000000,
200000000000200000000000200000000000000000000000,
100000000000000000000000200000000000000000000000,
200000000000200000000000200000000000000000000000,
100000000000000000000000100000000000000000000000,
100000000000000000001000100000000000000000000000,
100000000000000000000000100000000000000000000000,
100000000000000000001000100000000000000000000000,
#BPMCHANGE 109
100000000000000000000000100000000000000000000000,
100000000000000000000000
#BPMCHANGE 99
#SCROLL 1.1
100000000000000000000000,
#SCROLL 1
#BPMCHANGE 153
#MEASURE 3/4
100000000000000000000000000000000000,
100000000000000000000000000000000000,
#MEASURE 2/4
200000000000000000000000,
000000000000000000000000,
#GOGOSTART
#MEASURE 4/4
300000000000300000000000300000000000000000000000,
100000000000100000000000100000000000000000000000,
100000000000000000000000100000000000000000000000,
300000000000300000000000300000000000000000000000,
100000000000000000000000100000000000000000000000,
100000000000000000000000000000000000000000000000,
300000000000000000000000300000000000000000000000,
500000000000000000000000000000000000800000000000,
#GOGOEND
000000000000000000000000000000000000000000000000,
#GOGOSTART
100000000000100000000000100000000000000000000000,
200000000000200000000000200000000000000000000000,
100000000000100000000000100000000000000000000000,
200000000000200000000000200000000000000000000000,
100000000000100000100000100000000000000000000000,
100000000000100000100000100000000000000000000000,
100000000000100000000000100000000000000000000000,
200000000000200000000000200000000000000000000000,
500000000000000000000000000000000000000000008000,
#GOGOEND
000000000000000000000000000000000000000000000000,
#MEASURE 3/4
100000000000000000000000000000000000,
100000000000000000000000000000000000,
#MEASURE 2/4
200000000000000000000000,
000000000000000000000000,
#MEASURE 4/4
100000000000000000000000000000000000000000000000,
100000000000000000000000200000000000000000000000,
100000000000000000000000000000000000000000000000,
100000000000000000000000200000000000000000000000,
100000000000000000000000100000000000000000000000,
100000000000100000000000100000000000000000000000,
100000000000000000000000100000000000000000000000,
100000000000100000000000100000000000000000000000,
100000000000000000000000100000000000000000000000,
#MEASURE 3/4
100000000000000000000000000000000000,
000000000000000000000000000000000000,
#MEASURE 4/4
300000000000000000000000000000000000000000000000,
#END