Files
ESE/09 Namco Original/MEKADON ~A Mechanical Drum Disappeared Into Space~/MEKADON ~A Mechanical Drum Disappeared Into Space~.tja
2023-06-15 19:15:39 -05:00

257 lines
6.5 KiB
Plaintext
Raw Permalink Blame History

This file contains ambiguous Unicode characters
This file contains Unicode characters that might be confused with other characters. If you think that this is intentional, you can safely ignore this warning. Use the Escape button to reveal them.
//TJADB Project
TITLE:MEKADON ~A Mechanical Drum Disappeared Into Space~
TITLEJA:MEKADON
SUBTITLE:--Go Shiina feat. Yuri Misumi
SUBTITLEJA:〜宇宙に消えたメカ太鼓〜
BPM:118
WAVE:MEKADON ~A Mechanical Drum Disappeared Into Space~.ogg
OFFSET:-6.627
DEMOSTART:65.608
COURSE:Oni
LEVEL:5
#START
10210120,
#BPMCHANGE 118.5
11210120,
10210120,
#BPMCHANGE 118
11210121,
#BPMCHANGE 116
1000201110012010,
#BPMCHANGE 118
500000000000000008000000100000000000200000100100,
1000201110002010,
#BPMCHANGE 119
1000201110002000,
10211021,
#BPMCHANGE 118
1001201030004010,
#BPMCHANGE 117
1001201010012010,
#BPMCHANGE 118
500000000000000000000000000008000000200000100000,
#BPMCHANGE 117.5
1000201110012010,
#BPMCHANGE 118.5
500000000000000008000000100000000000200000100100,
1000211110002011,
1000201110002011,
1000201110002010,
1001201030004010,
#BPMCHANGE 116.5
1001201010012010,
500000000000000000000000000000000008000000000000,
#BPMCHANGE 119.5
0000200000002111,
#BPMCHANGE 117
10210021,
#BPMCHANGE 118
1000201110002010,
#BPMCHANGE 118.5
1000201110002000,
#BPMCHANGE 116.8
0000200000002111,
#BPMCHANGE 119
10210020,
1000201110002010,
#BPMCHANGE 117
1011210100112101,
0010201011112111,
#BPMCHANGE 119
1010201100102011,
#BPMCHANGE 118
0010201101010101,
#BPMCHANGE 120
0010201100102011,
#BPMCHANGE 117
0010201010102011,
#BPMCHANGE 118
0000201100102011,
#BPMCHANGE 119
0010201101010100,
#BPMCHANGE 117
3001003000001010,
#BPMCHANGE 119
3001003000002111,
#BPMCHANGE 117.5
00211020,
#BPMCHANGE 116.5
0000202200002000,
#BPMCHANGE 118.5
0000202200001100,
#END
COURSE:Hard
LEVEL:3
SCOREINIT:950
SCOREDIFF:250
#START
100000000000200000100000000000100000200000000000,
#BPMCHANGE 118.5
100000000000200000100000000000100000200000000000,
100000000000200000100000000000100000200000000000,
#BPMCHANGE 118
100000000000200000100000000000100000200000100000,
#BPMCHANGE 116
100000000000000000100100100000000100000000100000,
#BPMCHANGE 118
500000000000000080000000100000000000000000100100,
100000000000000000100100100000000000000000100000,
#BPMCHANGE 119
100000000000000000100100100000000000000000000000,
100000000000200000100000100000000000200000100000,
#BPMCHANGE 118
100000000100000000100000300000000000000000000000,
#BPMCHANGE 117
100000000100000000100000100000000100000000100000,
#BPMCHANGE 118
500000000000000000000000000080000000000000100000,
#BPMCHANGE 117.5
100000000000000000100100100000000100000000100000,
#BPMCHANGE 118.5
500000000000000080000000100000000000000000100100,
100000000000000100100100100000000000000000100100,
100000000000000000100100100000000000000000100100,
100000000000200000100000100000000000200000100000,
100000000100000000100000300000000000000000000000,
#BPMCHANGE 116.5
100000000100000000100000100000000100000000100000,
500000000000000000000000000080000000000000000000,
#BPMCHANGE 119.5
000000000000200000000000000000000000100100100100,
#BPMCHANGE 117
100000000000200000100000000000000000200000100000,
#BPMCHANGE 118
100000000000000000100100100000000000200000100000,
#BPMCHANGE 118.5
100000000000000000100100100000000000200000000000,
#BPMCHANGE 116.8
000000000000200000000000000000000000100100100100,
#BPMCHANGE 119
100000000000200000100000000000000000200000000000,
100000000000000000100100100000000000000000100000,
#BPMCHANGE 117
100000100100000100000100000000100100000100000100,
000000100000100000100000100000100000100000100000,
#BPMCHANGE 119
100000100000100001001000000000100000100001001000,
#BPMCHANGE 118
000000100000100001001000000100000100000100000100,
#BPMCHANGE 120
000000100000100001001000000000100000100001001000,
#BPMCHANGE 117
000000100000100000100000100000100000100001001000,
#BPMCHANGE 118
000000000000100001001000000000100000100001001000,
#BPMCHANGE 119
000000100000100001001000000100000100000100000100,
#BPMCHANGE 117
000000000000000000300000000000000000100000100000,
#BPMCHANGE 119
500000000000000000000080000000000000100100100100,
#BPMCHANGE 117.5
000000000000100000100000100000000000200000000000,
#BPMCHANGE 116.5
000000000000200000000000000000000000200000000000,
#BPMCHANGE 118.5
000000000000200000000000000000000000100100000000,
#END
COURSE:Normal
LEVEL:4
SCOREINIT:1210
SCOREDIFF:370
#START
100000000000200000000000000000100000200000000000,
#BPMCHANGE 118.5
100000000000200000000000000000100000200000000000,
100000000000200000000000000000100000200000000000,
#BPMCHANGE 118
100000000000000000000000000000000000000000000000,
#BPMCHANGE 116
100000000000000000100100100000000000000000000000,
#BPMCHANGE 118
500000000000000080000000100000000000000000100100,
100000000000000000100100100000000000000000100000,
#BPMCHANGE 119
100000000000000000100100100000000000000000000000,
100000000000000000200000200000000000000000000000,
#BPMCHANGE 118
100000000000100000000000300000000000000000000000,
#BPMCHANGE 117
100000000000100000000000100000000000100000000000,
#BPMCHANGE 118
500000000000000000000000000080000000000000100000,
#BPMCHANGE 117.5
100000000000000000100100100000000000000000000000,
#BPMCHANGE 118.5
500000000000000080000000100000000000000000100100,
100000000000000000100100100000000000000000100100,
100000000000000000100100100000000000000000100100,
100000000000000000200000200000000000000000000000,
100000000000100000000000300000000000000000000000,
#BPMCHANGE 116.5
100000000000100000000000100000000000100000000000,
500000000000000000000000000080000000000000000000,
#BPMCHANGE 119.5
000000000000100000000000000000000000100000100000,
#BPMCHANGE 117
100000000000000000200000000000000000000000200000,
#BPMCHANGE 118
200000000000000000100100100000000000000000200000,
#BPMCHANGE 118.5
200000000000000000100100100000000000000000000000,
#BPMCHANGE 116.8
000000000000100000000000000000000000100000100000,
#BPMCHANGE 119
100000000000000000200000000000000000000000000000,
200000000000000000100100100000000000000000000000,
#BPMCHANGE 117
100000000000100000000000100000100000100000000000,
100000100000100000100000300000000000300000000000,
#BPMCHANGE 119
000000100000100000100000000000100000100000100000,
#BPMCHANGE 118
000000100000100000100000000300000000000300000000,
#BPMCHANGE 120
000000100000100000100000000000100000100000100000,
#BPMCHANGE 117
000000100000100000100000000000100000100000100000,
#BPMCHANGE 118
000000000000100000100000000000100000100000100000,
#BPMCHANGE 119
000000100000100000100000000000000100000100000100,
#BPMCHANGE 117
000000000000000000300000000000000000100000100000,
#BPMCHANGE 119
500000000000000000000080000000000000100000100000,
#BPMCHANGE 117.5
000000000000100000100000100000000000200000000000,
#BPMCHANGE 116.5
000000000000200000000000000000000000200000000000,
#BPMCHANGE 118.5
000000000000200000000000000000000000100100000000,
#END