Files
2023-06-15 19:05:10 -05:00

548 lines
5.7 KiB
Plaintext

//TJADB Project
TITLE:Princess Soprano ℣ Maou
TITLEJA:FIXME
SUBTITLE:--Takafumi Sato feat. Nao Toyama
BPM:163
WAVE:Princess Soprano vs Maou.ogg
OFFSET:-5.916
DEMOSTART:31.656
COURSE:Hard
LEVEL:8
BALLOON:10,5,10
SCOREINIT:360
SCOREDIFF:85
#START
,
#BPMCHANGE 162.38
,
#BPMCHANGE 163.79
,
,
#BPMCHANGE 163
10101020,
10101120,
10101020,
10100222,
01110222,
01110222,
#BPMCHANGE 163.32
12001012,
#BPMCHANGE 180
#GOGOSTART
10101212,
00101100,
10101212,
10001100,
#BPMCHANGE 162.36
20003333,
#BPMCHANGE 163.66
00101030,
#BPMCHANGE 162.99
4
,
#GOGOEND
#BPMCHANGE 163
1000100010111000,
2000200020222000,
1000100010111000,
2000200020222000,
33004400,
33004400,
11110101,
#BPMCHANGE 180
10001010,
#GOGOSTART
11201120,
11003333,
11201120,
0000202011111000,
1011101110111000,
2022202220222000,
1110111022202220,
000000000000000000000000500000000008000000000000,
#BPMCHANGE 185
11201120,
#BPMCHANGE 187
11223030,
#BPMCHANGE 189
11201120,
#BPMCHANGE 191
1010202011111000,
#BPMCHANGE 193
1011101110111000,
#BPMCHANGE 195
2022202220000000,
#BPMCHANGE 195.63
1110111022202000,
#BPMCHANGE 163
11110107,
#GOGOEND
00000080,
10101120,
12222222,
10101120,
12222222,
#BPMCHANGE 163.56
01110222,
#BPMCHANGE 120
01110222,
#MEASURE 2/4
#SCROLL 0.9
1200,
#MEASURE 4/4
#SCROLL 0.8
1000102000000000,
#SCROLL 0.7
1000000010001000,
#SCROLL 0.6
10001010,
#BPMCHANGE 120.22
#SCROLL 0.5
100000000000000010000000100000000,
#BPMCHANGE 210
#SCROLL 1
,
#GOGOSTART
12011020,
10102002,
1020100010222000,
30303000,
12011020,
10102002,
1020100010000000,
10210120,
11210120,
500000000000000000000000000000800000,
500000000000000000000000000000800000,
10210120,
00000120,
1000000010111000,
500000000000000000000000000000800000,
#BPMCHANGE 185
1000100000111000,
#MEASURE 2/4
2020,
#MEASURE 4/4
0022200010001000,
#BPMCHANGE 187
1011100000002000,
#BPMCHANGE 189
2022200030300000,
#BPMCHANGE 191
44003300,
#BPMCHANGE 193
1011101110111011,
#BPMCHANGE 195
1000001110000011,
#BPMCHANGE 197
11201120,
#BPMCHANGE 199
10107000,
#BPMCHANGE 201
0800000030000000,
#BPMCHANGE 204
30003333,
#BPMCHANGE 207
02220111,
#BPMCHANGE 210
02220111,
#BPMCHANGE 213
20202220,
#BPMCHANGE 216
10101010,
#BPMCHANGE 219
20200020,
#BPMCHANGE 222
2220111022200000,
#BPMCHANGE 162.79
40000000,
#GOGOEND
#BPMCHANGE 163
1000100010111000,
2000200020222000,
1000100010111000,
2000200020222000,
33004400,
33004400,
11110107,
00000080,
10101120,
12222222,
10101120,
12222222,
01110222,
01110222,
12001012,
#END
COURSE:Normal
LEVEL:6
BALLOON:10,10,5,10
#START
,
#BPMCHANGE 162.38
,
#BPMCHANGE 163.79
,
,
#BPMCHANGE 163
1110,
1120,
1110,
1120,
1122,
1122,
#BPMCHANGE 163.32
33004033,
#GOGOSTART
#BPMCHANGE 180
1110,
1110,
1111,
0110,
#BPMCHANGE 162.36
35,
#BPMCHANGE 163.66
000000000000000000000000000000000008000000000000,
#BPMCHANGE 162.99
4,
#GOGOEND
#BPMCHANGE 163
10101110,
20202220,
10101110,
20202220,
33004400,
33004400,
70000080,
#BPMCHANGE 180
1101,
#GOGOSTART
1212,
10001110,
1212,
1,
1111,
2200,
1212,
100000100000000000000000500000000008000000000000,
#BPMCHANGE 185
1212,
#BPMCHANGE 187
1,
#BPMCHANGE 189
1212,
#BPMCHANGE 191
10001110,
#BPMCHANGE 193
1111,
#BPMCHANGE 195
0022,
#BPMCHANGE 195.63
11102220,
#BPMCHANGE 163
7,
#GOGOEND
00000080,
1110,
1120,
1110,
1120,
#BPMCHANGE 163.56
1120,
#BPMCHANGE 120
1120,
#MEASURE 2/4
#SCROLL 0.9
3300,
#MEASURE 4/4
#SCROLL 0.8
40330000,
#SCROLL 0.7
11,
#SCROLL 0.6
11,
#BPMCHANGE 120.22
#SCROLL 0.5
11,
#BPMCHANGE 210
#SCROLL 1
,
#GOGOSTART
11,
22,
11,
3330,
11,
2020,
1010,
10110000,
10110000,
500000000000000000000000000000000008000000000000,
500000000000000000000000000000000008000000000000,
20220000,
,
10101110,
500000000000000000000000000000000008000000000000,
#BPMCHANGE 185
10101110,
#MEASURE 2/4
22,
#MEASURE 4/4
22201000,
#BPMCHANGE 187
11102020,
#BPMCHANGE 189
22203300,
#BPMCHANGE 191
44003300,
#BPMCHANGE 193
1111,
#BPMCHANGE 195
0110,
#BPMCHANGE 197
1111,
#BPMCHANGE 199
10107080,
#BPMCHANGE 201
03,
#BPMCHANGE 204
33,
#BPMCHANGE 207
0011,
#BPMCHANGE 210
0011,
#BPMCHANGE 213
2011,
#BPMCHANGE 216
1011,
#BPMCHANGE 219
2222,
#BPMCHANGE 222
2200,
#BPMCHANGE 162.79
4,
#GOGOEND
#BPMCHANGE 163
10101110,
20202220,
10101110,
20202220,
33004400,
33004400,
7,
00000080,
1110,
1120,
1110,
1120,
1122,
1122,
33004033,
#END
COURSE:Easy
LEVEL:5
BALLOON:5,10,10,5,10
#START
,
#BPMCHANGE 162.38
,
#BPMCHANGE 163.79
,
,
#BPMCHANGE 163
1110,
1,
1110,
1,
12,
12,
#BPMCHANGE 163.32
30007080,
#GOGOSTART
#BPMCHANGE 180
1110,
1110,
1110,
1110,
#BPMCHANGE 162.36
35,
#BPMCHANGE 163.66
000000000000000000000000000000000008000000000000,
#BPMCHANGE 162.99
4,
#GOGOEND
#BPMCHANGE 163
1110,
2220,
1110,
2220,
34,
34,
70000080,
#BPMCHANGE 180
1101,
#GOGOSTART
1212,
13,
1212,
1,
1111,
2200,
1122,
11110000,
#BPMCHANGE 185
1212,
#BPMCHANGE 187
1,
#BPMCHANGE 189
1212,
#BPMCHANGE 191
13,
#BPMCHANGE 193
1111,
#BPMCHANGE 195
0022,
#BPMCHANGE 195.63
1122,
#BPMCHANGE 163
7,
#GOGOEND
00000080,
1110,
12,
1110,
12,
#BPMCHANGE 163.56
1120,
#BPMCHANGE 120
1120,
#MEASURE 2/4
#SCROLL 0.9
3,
#MEASURE 4/4
#SCROLL 0.8
500000000000000000000008000000000000000000000000,
#SCROLL 0.7
11,
#SCROLL 0.6
11,
#BPMCHANGE 120.22
#SCROLL 0.5
11,
#BPMCHANGE 210
#SCROLL 1
,
#GOGOSTART
11,
22,
11,
3330,
11,
2,
11,
1100,
1100,
500000000000000000000000000000000008000000000000,
500000000000000000000000000000000008000000000000,
2200,
,
1111,
500000000000000000000000000000000008000000000000,
#BPMCHANGE 185
1110,
#MEASURE 2/4
22,
#MEASURE 4/4
2011,
#BPMCHANGE 187
1022,
#BPMCHANGE 189
23,
#BPMCHANGE 191
43,
#BPMCHANGE 193
1111,
#BPMCHANGE 195
1110,
#BPMCHANGE 197
1111,
#BPMCHANGE 199
10107080,
#BPMCHANGE 201
03,
#BPMCHANGE 204
33,
#BPMCHANGE 207
0011,
#BPMCHANGE 210
0011,
#BPMCHANGE 213
1111,
#BPMCHANGE 216
1011,
#BPMCHANGE 219
2222,
#BPMCHANGE 222
2200,
#BPMCHANGE 162.79
4,
#GOGOEND
#BPMCHANGE 163
1110,
2220,
1110,
2220,
33004400,
33004400,
7,
00000080,
1110,
12,
1110,
12,
1120,
1120,
33003033,
#END