Files
2023-06-15 19:15:39 -05:00

502 lines
11 KiB
Plaintext
Raw Permalink Blame History

This file contains ambiguous Unicode characters
This file contains Unicode characters that might be confused with other characters. If you think that this is intentional, you can safely ignore this warning. Use the Escape button to reveal them.
//TJADB Project
TITLE:Ryuu to Kokuen no Himegimi
TITLEJA:竜と黒炎の姫君
SUBTITLE:--Seifu Meigetsu [Drop × Yura Hatsuki] feat. Hisui
BPM:306
WAVE:Ryuu to Kokuen no Himegimi.ogg
OFFSET:-0.889
DEMOSTART:68.299
BGMOVIE:Ryuu to Kokuen no Himegimi.mp4
COURSE:Edit
LEVEL:10
SCOREINIT:320
SCOREDIFF:90
#START
#MEASURE 8/4
#SCROLL 0.75
3000200030020020,
500000000000000000000008000000000000200000200000500000000000000000000008000000000000200020002000,
1002002030002000,
3002002022222222,//4
#GOGOSTART
1020112011210120,
100100200100000100200200100100200100000100202020,
1121221212212211,
20201010202010102220101022201010,
1012012010120120,//9
#GOGOEND
00000000000000000000000000112000,
1020112011210120,
1020112211211120,
1120112011211120,
10102020101020201120102010201020,
1020112011210120,
1020112211211122,
1221221211212212,
100100100000200000100100100000200000100000200000500000000000000000000000000008000000000000000000,
1020112011210120,
1020112211211120,
1120112011211120,
10102020101020201120102010201020,
100000101010100100100100200100100200100100200100,
500000000000000000000008000000000000200000100000100000100000200010001000100000100000200000200000,
1221221211212212,
100100100000200000100100100000200000100000200000500000000000000000000000000008000000000000000000,
1111201111201120,
1111201111201120,
1111202111201120,
10101010200020101010202011202010,
1111201111201120,
1111201111201120,
1111202111201121,
22201010202010102220101020201010,
100000202020200000101010200000100200000100200000,
100000000000000000101010100100100100200200100100,
100000202020200000101010200000100200000100200000,
100200100200100200100200100100101010200200200200,
2111211121112211,
20101020101020101000101020201111,
20001020001020001011101010101010,
200000100200000100200000100010101000100010001000,
20000000000000002000001120000000,//43
#GOGOSTART
1020112011210120,
10102010101020201010201011202010,
1020112211210121,
10102010101022201010201022102000,
1221012112210121,
1122112211221222,
10102010001020001110201000102000,
11102010001020001110201022201110,
1020112011210120,
10102010101020201010201011202010,
1021112212210121,
10102010101022201010201022112000,
100000000000000000100100200000000000000000000000200000002000000020000000100000001000000010000000,
222222111111222111200000,
300000000000000000300000000000000000300000000000600000000000000000000008000000000000200000200000,
1021021040040040,
1020112011210120,
100100200100000100200200100100200100000100202020,
1221221211212210,
100100100000200000100100100000200000100000200000100010001000200000100000200000200000100000100000,
1020112011210120,
100100200100000100200200100100200100000100202020,
1121221212212211,
20201010202010102220101022201010,
10001020001020001000112000102000,//68
#GOGOEND
100000000000111111200000,
222222111111222222111111,
1333,
#MEASURE 4/4
4,
#END
COURSE:Oni
LEVEL:8
BALLOON:6,17,18,5,3,3,3,3
SCOREINIT:510
SCOREDIFF:100
#START
#MEASURE 8/4
#SCROLL 0.5
33,
33,
33,
3000000022222222,//4
#GOGOSTART
1020112011210120,
1021012110210122,
1020112010201120,
2211221122112210,
3003003040040040,//9
#GOGOEND
,
1001001110010011,
1001001110210120,
1020112010201120,
1020112012121212,
1001001110010011,
1001001110210120,
1121012110004000,
300000000000000000300000000000000000300000000000600000000000000000000000000008000000000000000000,
1001001110010011,
1001001110210120,
1020112010201120,
1020112012121212,
1003003040040040,
600000000000000000000008000000000000100000100000100000000000200000100000000000100000200000000000,
1121012112104000,
3003003070000800,
1010001110102010,
1010001110102010,
1010001110102010,
1010001011221122,
1010001110102011,
1010001110102011,
1010001110102011,
2211221122112211,
500000000000000000000000000000000008000000000000400000000000000000400000000000000000400000000000,
70000008,
500000000000000000000000000000000008000000000000400000000000000000400000000000000000400000000000,
70000008,
2011201020112010,
2011221020111120,
300000000000000000300000000000000000300000000000600000000000000000000000000008000000000000000000,
400000000000000000400000000000000000400000000000600000000000000000000000000000000000000000000008,
0034,//43
#GOGOSTART
1020112011210120,
1021012010201122,
1020112011210120,
100000000000200000100000100000100000200000000000500000000000000000000000000008000000000000000000,
1112021011120210,
1022102210221020,
100000100000200000100000100000200000100000000000500000000000000000000008000000000000100000200000,
1121121070008000,
1020112011210120,
1021012010201122,
1021012012210120,
500000000000000000000008000000000000200000200000500000000000000000000000000008000000000000000000,
2212201040040040,
1021201210212000,
300000000000000000300000000000000000300000000000600000000000000000000008000000000000200000200000,
1003003040040040,
1020112011210120,
1021012110210122,
1022102011201020,
1121012112104000,
1020112011210120,
1021012110210122,
1022112011221120,
2211221122112210,
3003003040040040,//68
#GOGOEND
1,
78787878,
1333,
#MEASURE 4/4
4,
#END
COURSE:Hard
LEVEL:7
BALLOON:6,5,13,13,14,4,14
SCOREINIT:430
SCOREDIFF:120
#START
#MEASURE 8/4
#SCROLL 0.5
33,
33,
33,
30007008,//4
#GOGOSTART
1020102010010020,
500000000000000000000008000000000000200000200000500000000000000000000008000000000000200000000000,
2011102020111020,
1110111011101110,
3003003040040040,//9
#GOGOEND
,
1001001010010010,
1001001110010020,
1020111010201110,
100000000000200000000000100000000000200000000000500000000000000000000000000008000000000000000000,
1001001010010010,
1001001110010010,
3003004030004000,
300000000000000000300000000000000000300000000000600000000000000000000000000008000000000000000000,
1001001010010010,
1001001110010020,
1020111010201110,
100000000000200000000000100000000000200000000000500000000000000000000000000008000000000000000000,
3003003040040040,
600000000000000000000008000000000000100000100000100000000000000000100000000000000000100000000000,
4004004030004000,
3003003070000800,
11011020,
11011020,
11011020,
70000008,
11011020,
1010001020020020,
11011020,
1110111022202220,
500000000000000000000000000000000008000000000000400000000000000000400000000000000000400000000000,
70000008,
500000000000000000000000000000000008000000000000400000000000000000400000000000000000400000000000,
70000008,
11211121,
2011102000111020,
300000000000000000300000000000000000300000000000600000000000000000000000000008000000000000000000,
400000000000000000400000000000000000400000000000600000000000000000000000000000000000000000000008,
0034,//43
#GOGOSTART
1020112010201120,
1020112010201110,
1020112010201120,
100000000000200000000000100000100000200000000000500000000000000000000000000008000000000000000000,
1001002010010020,
1011101110111000,
300000000000000000300000000000000000300000000000500000000000000000000008000000000000200000200000,
2004004070000800,
1020112010201120,
1020112010201110,
1020112010201120,
500000000000000000000008000000000000200000200000500000000000000000000000000008000000000000000000,
1001001020020020,
1011101110112000,
300000000000000000300000000000000000300000000000600000000000000000000008000000000000100000100000,
1003003040040040,
6,
000000000000000000000000000008000000000000000000000000000000000000000000000000000000100000100000,
1020102011102000,
1001002011104000,
1020102010010020,
500000000000000000000008000000000000200000200000500000000000000000000008000000000000200000000000,
2011102020111020,
2220111022201110,
3003003040040040,//68
#GOGOEND
,
70000008,
0333,
#MEASURE 4/4
4,
#BARLINEOFF
,
,
,
,
,
,
,
#END
COURSE:Normal
LEVEL:6
BALLOON:11,7,7,8,10,8,25,10
#START
#MEASURE 8/4
#SCROLL 0.5
33,
33,
33,
33,//4
#GOGOSTART
1000200010010010,
500000000000000000000000000000000000000000000000000000000000000000000008000000000000000000000000,
11102220,
500000000000000000000000000000000000000000000000000000000000000000000008000000000000000000000000,
3003003030030030,//9
#GOGOEND
,
1001001010010010,
1000000010010010,
1212,
500000000000000000000000000000000000000000000000000000000000000000000008000000000000000000000000,
1001001010010010,
1000000010010000,
1001001010004000,
600000000000000000000000000000000000000000000000000000000000000000000008000000000000000000000000,
1001001010010010,
1000000010010010,
1212,
500000000000000000000000000000000000000000000000000000000000000000000008000000000000000000000000,
7,
8000000010010000,
1001001010004000,
600000000000000000000000000000000000000000000000000000000000000000000008000000000000000000000000,
10011020,
10011020,
10011020,
7008,
10011020,
10011020,
10011020,
7008,
3000000040040040,
500000000000000000000000000000000000000000000000000000000000000000000008000000000000000000000000,
3000000040040040,
500000000000000000000000000000000000000000000000000000000000000000000008000000000000000000000000,
1111,
1001001000202020,
7008,
7,
8034,//43
#GOGOSTART
1000001010010010,
1001001010002000,
1000001010010020,
500000000000000000000000000000000000000000000000000000000000000000000008000000000000000000000000,
1001000020020000,
1122,
500000000000000000000000000000000000000000000000000000000008000000000000000000000000700000000000,
0008,
1000001010010010,
1001001010002000,
1001001010020050,
000000000000000000000000000000000000000000000000000000000000000000000008000000000000000000000000,
1001000020020000,
3344,
600000000000000000000000000000000000000000000000000000000008000000000000000000000000900000000000,
,
,
9,
8,
,
1000200010010010,
500000000000000000000000000000000000000000000000000000000000000000000008000000000000000000000000,
11102220,
500000000000000000000000000000000000000000000000000000000000000000000008000000000000000000000000,
3003003030030030,//68
#GOGOEND
,
7,
8333,
#MEASURE 4/4
4,
#BARLINEOFF
,
,
,
,
,
,
,
#END
COURSE:Easy
LEVEL:4
BALLOON:9,5,5,6,8,6,20,7
#START
#MEASURE 8/4
#SCROLL 0.5
#BARLINEOFF
,
,
,
,//4
#BARLINEON
#GOGOSTART
1111,
500000000000000000000000000000000000000000000000000000000008000000000000000000000000000000000000,
11101110,
3333,
600000000000000000000000000000000000000000000000000000000000000000000000000000000000000008000000,//9
#GOGOEND
,
10011001,
10011000,
1122,
500000000000000000000000000000000000000000000000000000000008000000000000000000000000000000000000,
10011001,
10011000,
10011020,
600000000000000000000000000000000000000000000000000000000008000000000000000000000000000000000000,
10011001,
10011000,
1122,
500000000000000000000000000000000000000000000000000000000000000000000008000000000000000000000000,
7,
81,
10011020,
600000000000000000000000000000000000000000000000000000000008000000000000000000000000000000000000,
1011,
1011,
12,
7008,
1011,
1011,
12,
7008,
34,
500000000000000000000000000000000000000000000000000000000008000000000000000000000000000000000000,
34,
500000000000000000000000000000000000000000000000000000000008000000000000000000000000000000000000,
1111,
1111,
7008,
7,
8,//43
#GOGOSTART
10101011,
1120,
1112,
500000000000000000000000000000000000000000000000000000000008000000000000000000000000000000000000,
11,
1122,
500000000000000000000000000000000000000000000000000000000008000000000000000000000000700000000000,
0008,
10101011,
1120,
1112,
500000000000000000000000000000000000000000000000000000000008000000000000000000000000000000000000,
11,
4444,
600000000000000000000000000000000000000000000000000000000008000000000000000000000000900000000000,
,
,
9,
8,
,
1111,
500000000000000000000000000000000000000000000000000000000008000000000000000000000000000000000000,
11101110,
3333,
600000000000000000000000000000000000000000000000000000000000000000000000000000000000000008000000,//68
#GOGOEND
,
7,
8333,
#MEASURE 4/4
3,
#BARLINEOFF
,
,
,
,
,
,
,
#END