Files
2023-06-15 19:05:10 -05:00

327 lines
3.9 KiB
Plaintext

//TJADB Project
TITLE:Sekai wa Itsudemo Mystery
TITLEJA:世界はいつでもミステリー
SUBTITLE:--Torine feat. Honoka Inoue
SUBTITLEJA:「太鼓の達人 ドコドン!ミステリーアドベンチャー」テーマソング
BPM:140
WAVE:Sekai wa Itsudemo Mystery.ogg
OFFSET:-1.881
DEMOSTART:75.756
COURSE:Oni
LEVEL:7
BALLOON:20
SCOREINIT:740
SCOREDIFF:180
#START
#GOGOSTART
1000200022020220,
1000200022020220,
1000200010221020,
0000200010221020,
00201012,
1022102000221020,
11010201,
0020101000300022,
1012002210120022,
1012002210120010,
1022102012012011,
21203330,
6,
000000000000000000000008000000000000000000000000,//14
#GOGOEND
,
00000120,
1000001110002000,
1000002220102000,
1000001110002000,
1000002220102000,
1000201110002011,
1000200010102011,
1000201110000000,
1002002010020220,
1002002010020220,
1002002010020220,
00122125,
000000000000000000000000000000000008000000000000,
1010202210200070,
0008,
,
102020102220,
102020102220,
112020102220,
112021202220,
112020102220,
#MEASURE 2/4
112020,
#MEASURE 4/4
500000000000000000000000000000000008000000000000,
33,
1022102012021020,
1022102012021020,
1002002010020020,
1022102210221000,
3003003000102000,//44
#GOGOSTART
1001102010201022,
1020102210221120,
1001102010221120,
1001102010221120,
1001102010221020,
0020202000221020,
1110201122102022,
1121212000300022,
1012002210120022,
1012002210120011,
1022201012012011,
21203330,
6,
000000000000000000000000000000000000000000000008,
#GOGOEND
#END
COURSE:Hard
LEVEL:5
BALLOON:12
SCOREINIT:680
SCOREDIFF:190
#START
#GOGOSTART
10200220,
10200220,
10201212,
00211212,
00200212,
0010102000222020,
11010201,
02110302,
1011002010110020,
1011002010110010,
1020101000000011,
11103330,
6,
000000000000000000000008000000000000000000000000,//14
#GOGOEND
,
0002,
10011020,
10011020,
10011020,
1000000010010010,
1001001010010010,
10201121,
10211000,
1002002010020020,
1002002010020020,
1002002010020020,
00122125,
000000000000000000000000000000000008000000000000,
11221207,
0008,
,
122122,
102020102220,
122122,
102020102220,
112020102020,
#MEASURE 2/4
112020,
#MEASURE 4/4
500000000000000000000000000000000008000000000000,
33,
1020102011011020,
1020102011011020,
1002002010020020,
1111,
3003003000002000,//44
#GOGOSTART
1001102000102000,
1001102000102010,
1001102010201020,
00021112,
00000011,
0020202000222020,
11010201,
02110302,
1011002010110020,
1011002010110010,
1020101000000011,
11103330,
6,
000000000000000000000000000000000000000000000008,//58
#GOGOEND
,
,
,
,
#END
COURSE:Normal
LEVEL:4
BALLOON:10
#START
#GOGOSTART
00200220,
00200220,
00201011,
00201011,
00201011,
01110000,
10010201,
01110001,
10011002,
20022001,
01110001,
1133,
6,
000000000000000000000008000000000000000000000000,//14
#GOGOEND
,
,
1012,
1,
1012,
10001001,
10001001,
10001001,
10011000,
1012,
1012,
1012,
00101025,
000000000000000000000000000000000008000000000000,
10101107,
0008,
,
1210,
1110,
1210,
1110,
1210,
#MEASURE 2/4
101010000200,
#MEASURE 4/4
500000000000000000000000000000000008000000000000,
33,
10110000,
20220000,
33,
1111,
3003003000000000,//44
#GOGOSTART
1210,
1212,
10001011,
00001011,
00000011,
01110000,
10010201,
01110001,
10011002,
20022001,
01100001,
1133,
6,
000000000000000000000000000000000000000000000008,//58
#GOGOEND
,
,
,
,
#END
COURSE:Easy
LEVEL:4
BALLOON:6
#START
#GOGOSTART
0202,
0202,
0212,
0202,
0203,
01110000,
10010101,
00030000,
10011000,
20022000,
10011000,
1033,
6,
000000000000000000000008000000000000000000000000,//14
#GOGOEND
,
,
11,
1,
11,
1,
1110,
1110,
10111000,
12,
12,
12,
00101005,
000000000000000000000000000008000000000000000000,
10101007,
0008,
,
12,
1110,
12,
1110,
12,
#MEASURE 2/4
1,
#MEASURE 4/4
500000000000000000000000000008000000000000000000,
33,
1100,
2200,
33,
1111,
3003003000000000,//44
#GOGOSTART
11,
2222,
10001011,
00001011,
0003,
01110000,
10010101,
00030000,
10011000,
20022000,
10110000,
1033,
6,
000000000000000000000000000000000000000000000008,//58
#GOGOEND
,
,
,
,
#END